Торренты   
 
 

 

Typбо в 3Д / Тurbо 3D (Дэвид Copeн / Dаvid Sоrеn) [2013, Мyльтфильм, Кoмедия, Пpиключения, Сeмейный, Спoрт, BDrip-AVC] Anamorph OverUnder / Вертикальная анаморфная стереопара

Рейтинг 3D:
194 голосов
8.3
Рейтинг фильма:
193 голосов
8.1
 
Вы должны быть авторизированы,
чтобы ставить оценки


Турбо в 3Д
Turbo 3D

«Быстрее, еще быстрее!»
Год выпуска: 2013
Страна: США (20th Century Fox, DreamWorks Animation SKG)
Жанр: Мультфильм, Комедия, Приключения, Семейный, Спорт
Продолжительность: 1:35:41
Перевод: Профессиональный (полное дублирование)
Русские субтитры:Форсированные,полные.
Режиссер: Дэвид Сорен / David Soren
Роли озвучивали (дублировали):

Turbo - Райан Рейнольдс (Тимур Родригез )
Chet - Пол Джаматти
Tito - Майкл Пенья
Smoove Move - Снуп Догг (Саймон)
Burn - Майя Рудольф (Юлия Морозова)
Paz - Мишель Родригес
Whiplash - Сэмюэл Л. Джексон (Станислав Концевич)
Angelo - Луис Гусман
Guy Gagné - Билл Хейдер
Skidmark - Бен Шварц (Олег Куликович)
Bobby - Ричард Дженкинс
Kim Ly - Кен Жонг
Описание:
Ничто так не раздражает темпераментную, мечтающую о скорости улитку с говорящим именем Турбо, как неспешная жизнь, медленные разговоры, заторможенные соседи. Пусть наш герой выглядит большим чудаком в этом вялом, неторопливом мире, пусть он идёт вопреки закону природы о «рождённом ползать», но если в сердце горит «пламенный мотор», а душа верит в чудо, оно просто не имеет права не произойти!
--Премьера: 17 июля 2013 (18 июля 2013)
Бюджет:$135 000 000
Кассовые сборы : $247 634 656
Релиз на Blu-Ray (DVD) : 21 ноября 2013

. .
Проверено на встроенном плейере ТВ LG LW 650S
--Качество: BDrip
Контейнер: MKV
Формат 3D: Anamorph OverUnder / Вертикальная анаморфная стереопара
Порядок ракурсов: левый ракурс первый
Видео кодек: x264
Аудио кодек: AC3
Видео: AVC / 23,976 fps / 1920х1080p / 7491 Kbps
Аудио:
#1 - Русский / AC3 / 48 KHz / 5.1 ch / 640 Kbps (Дубляж - BD3D EUR )
#2 - Украинский / AC3 / 48 KHz / 5.1 ch / 448 Kbps (Дубляж - BD3D EUR )
#3 - Английский / AC3 / 48 KHz / 5.1 ch / 640 Kbps (Original - BD3D EUR)
Субтитры: (SRT)
Внешние (UTF-8):
#1 - Русские Форсированные (включены по умолчанию)
#2 - Русские Полные
#3 - Украинские Форсированные
#4 - Украинские Полные
#5 - English Full
#6 - English SDH
Вшитые (softsub):
#1 - Русские Форсированные (включены по умолчанию)
#2 - Украинские Форсированные--

Скриншоты

Log x 264

Знаете ли вы, что...

• Во время продакшна на студии Dreamworks был припаркован индикар, чтобы предоставить художникам непосредственный доступ к гоночным автомобилям, задействованным в фильме.

Media Info

Общее
Уникальный идентификатор : 193591430699280962408641303049426826425 (0x91A45A743B403BB59A328E6E3315F4B9)
Полное имя : E:\3D фильмы\Turbo(2013)3D_halfOU(marik05)\Turbo(2013)3D_halfOU(marik05).mkv
Формат : Matroska
Версия формата : Version 4 / Version 2
Размер файла : 6,29 Гбайт
Продолжительность : 1 ч. 35 м.
Общий поток : 9406 Кбит/сек
Название фильма : Turbo 3D (2013) 3D-RuGroup (m@rik05)
Дата кодирования : UTC 2013-11-01 08:46:25
Программа кодирования : mkvmerge v6.5.0 ('Isn't she lovely') built on Oct 20 2013 12:50:05
Библиотека кодирования : libebml v1.3.0 + libmatroska v1.4.1
Видео
Идентификатор : 1
Формат : AVC
Формат/Информация : Advanced Video Codec
Профиль формата : High@L4.1
Параметр CABAC формата : Да
Параметр ReFrames формата : 4 кадра
Идентификатор кодека : V_MPEG4/ISO/AVC
Продолжительность : 1 ч. 35 м.
Битрейт : 7491 Кбит/сек
Ширина : 1920 пикселей
Высота : 1080 пикселей
Соотношение сторон : 16:9
Режим частоты кадров : Постоянный
Частота кадров : 23,976 кадра/сек
Цветовое пространство : YUV
Субдискретизация насыщенности : 4:2:0
Битовая глубина : 8 бит
Тип развёртки : Прогрессивная
Бит/(Пиксели*Кадры) : 0.151
Размер потока : 5,01 Гбайт (80%)
Заголовок : BDrip 1080p (by m@rik05)
Библиотека кодирования : x264 core 116 r2074 2641b9e
Настройки программы : cabac=1 / ref=4 / deblock=1:-3:-3 / analyse=0x3:0x113 / me=umh / subme=10 / psy=1 / psy_rd=1.00:0.15 / mixed_ref=1 / me_range=32 / chroma_me=1 / trellis=2 / 8x8dct=1 / cqm=0 / deadzone=21,11 / fast_pskip=1 / chroma_qp_offset=-3 / threads=12 / sliced_threads=0 / nr=0 / decimate=1 / interlaced=0 / bluray_compat=0 / constrained_intra=0 / bframes=8 / b_pyramid=2 / b_adapt=2 / b_bias=0 / direct=3 / weightb=1 / open_gop=0 / weightp=2 / keyint=250 / keyint_min=23 / scenecut=40 / intra_refresh=0 / rc_lookahead=60 / rc=crf / mbtree=1 / crf=16.0 / qcomp=0.70 / qpmin=10 / qpmax=69 / qpstep=4 / vbv_maxrate=50000 / vbv_bufsize=62500 / crf_max=0.0 / nal_hrd=none / frame-packing=4 / ip_ratio=1.40 / aq=1:0.70
Язык : English
Default : Да
Forced : Нет
Аудио #1
Идентификатор : 2
Формат : AC-3
Формат/Информация : Audio Coding 3
Расширение режима : CM (complete main)
Параметр Endianness формата : Big
Идентификатор кодека : A_AC3
Продолжительность : 1 ч. 35 м.
Вид битрейта : Постоянный
Битрейт : 640 Кбит/сек
Каналы : 6 каналов
Расположение каналов : Front: L C R, Side: L R, LFE
Частота : 48,0 КГц
Битовая глубина : 16 бит
Метод сжатия : С потерями
Размер потока : 438 Мбайт (7%)
Заголовок : AC3 / 48 KHz / 5.1 ch / 640 Kbps (Дубляж - BD3D EUR)
Язык : Russian
Default : Да
Forced : Да
Аудио #2
Идентификатор : 3
Формат : AC-3
Формат/Информация : Audio Coding 3
Расширение режима : CM (complete main)
Параметр Endianness формата : Big
Идентификатор кодека : A_AC3
Продолжительность : 1 ч. 35 м.
Вид битрейта : Постоянный
Битрейт : 448 Кбит/сек
Каналы : 6 каналов
Расположение каналов : Front: L C R, Side: L R, LFE
Частота : 48,0 КГц
Битовая глубина : 16 бит
Метод сжатия : С потерями
Размер потока : 307 Мбайт (5%)
Заголовок : AC3 / 48 KHz / 5.1 ch / 448 Kbps (Дубляж - BD3D EUR)
Язык : Ukrainian
Default : Нет
Forced : Нет
Аудио #3
Идентификатор : 4
Формат : AC-3
Формат/Информация : Audio Coding 3
Расширение режима : CM (complete main)
Параметр Endianness формата : Big
Идентификатор кодека : A_AC3
Продолжительность : 1 ч. 35 м.
Вид битрейта : Постоянный
Битрейт : 640 Кбит/сек
Каналы : 6 каналов
Расположение каналов : Front: L C R, Side: L R, LFE
Частота : 48,0 КГц
Битовая глубина : 16 бит
Метод сжатия : С потерями
Размер потока : 438 Мбайт (7%)
Заголовок : AC3 / 48 KHz / 5.1 ch / 640 Kbps (Original - BD3D EUR)
Язык : English
Default : Нет
Forced : Нет
Текст #1
Идентификатор : 5
Формат : UTF-8
Идентификатор кодека : S_TEXT/UTF8
Идентификатор кодека/Информация : UTF-8 Plain Text
Заголовок : Форсированные
Язык : Russian
Default : Да
Forced : Да
Текст #2
Идентификатор : 6
Формат : UTF-8
Идентификатор кодека : S_TEXT/UTF8
Идентификатор кодека/Информация : UTF-8 Plain Text
Заголовок : Форсированные
Язык : Ukrainian
Default : Нет
Forced : Нет
Меню
00:00:00.000 : en:00:00:00.000
00:03:29.626 : en:00:03:29.626
00:06:39.858 : en:00:06:39.858
00:08:34.222 : en:00:08:34.222
00:10:13.863 : en:00:10:13.863
00:13:25.096 : en:00:13:25.096
00:17:15.785 : en:00:17:15.785
00:21:53.354 : en:00:21:53.354
00:25:42.708 : en:00:25:42.708
00:28:24.494 : en:00:28:24.494
00:30:17.899 : en:00:30:17.899
00:34:20.892 : en:00:34:20.892
00:38:20.340 : en:00:38:20.340
00:40:45.109 : en:00:40:45.109
00:44:40.219 : en:00:44:40.219
00:47:40.941 : en:00:47:40.941
00:49:29.925 : en:00:49:29.925
00:53:28.956 : en:00:53:28.956
00:57:00.626 : en:00:57:00.626
00:59:38.825 : en:00:59:38.825
01:02:05.972 : en:01:02:05.972
01:05:50.780 : en:01:05:50.780
01:08:07.166 : en:01:08:07.166
01:13:08.801 : en:01:13:08.801
01:16:26.791 : en:01:16:26.791
01:19:48.450 : en:01:19:48.450
01:23:26.126 : en:01:23:26.126
01:26:29.726 : en:01:26:29.726
Остальные раздачи этого фильма (4)
Благодарности релизеру (51)

Торрент:

Статус:

Размер:

Зарегистрирован   [ 2013-11-01 14:46 ]

проверено

6.29 GB

 
 Мнение о фильме (64)

1, 2, 3, 4  След.






Спасибо!!!!Хороший мульт,забавный!!!!
 

Все отлично.Тут и мультфильм хороший и 3D оставило свой след и вылеты есть. Понравилось качество изображения.
 

Хороший детский мультфильм с вылетами ! Спасибо !
 
евгения мурашко Профиль 02-Ноя-2013 03:59

Большое спасибо. Очень хороший мульт.
 
Виталий Цыганов Профиль 02-Ноя-2013 12:38

Отличный мульт,3d нормальное
 

Мультик хороший. Большое спасибо
 

Прекрасный мультик, отличное 3D, отличное исполнение рипа. Спасибо огромное!!!
 

Отлично сделан рип, 3D очень понравилось, добавил
литовскую звуковую дорожку,внучки в восторге.
Спасибо огромное!
 

Отично!!!
 

Прикольный мультик,всем понравился. Смотрим ещё раз.
 

Спасибо!!!Очень понравилось особенно дочке.
 
евгений 2012 Профиль 04-Ноя-2013 08:28

МУЛЬТ ПРОСТО ШИКАРНЫЙ 3Д НА ВЫСОТЕ!!!СЮЖЕТ БОМБИСИМО!
 

Я в восторге от этого мультика, да и ребенок рад, 3Д на высоте все замечательно. 5 баллов !!!
 

Конкретный мульт ,спасибо всем!!!!
 
евгений 2012 Профиль 05-Ноя-2013 21:27

Хороший мультфильм. 3Д в норме.
 
Алексей Вахляев Профиль 06-Ноя-2013 09:00

релизеру большое спасибо! сюжет, типа, "вторых" тачек - не очень. 3д - хорошее
 

Хороший мультфильм. 3Д в норме.
 

спс все норм
 

лицезрел мульт в театре, оч. понравился, терь дома позыркаю)))
 

Спасибо! С удовольствием посмотрели- оставляю в коллекции.
 

Страница 1 из 4

1, 2, 3, 4  След.