Торренты   
 
 

 

Возможности 3D [2011 г., Anamorph SideBySide]

Рейтинг 3D:
17 голосов
7.1
Рейтинг фильма:
16 голосов
5.7
 
Вы должны быть авторизированы,
чтобы ставить оценки


Возможности 3D
Год выпуска: 2011
Страна: Россия
Жанр: Документальный ролик в формате 3D
Продолжительность: 0:04:10
Режиссёр: КИВ
Камера: Panasonic HDC-SDT750 - 3D
Перевод: Не требуется
Русские субтитры: нет
Описание: Документальная съёмка возможностей 3D.
Фильм для любителей больших вылетов.
Формат 3D: Anamorph SideBySide
Видео: MPEG Video at 15,4 Мбит/сек 1920 x 1080 (1.778) at 25.000 fps

Скриншоты




Media Info

General
Complete name : F:\3D\Природа 3D.mpg
Format : MPEG-PS
File size : 482 MiB
Duration : 4mn 10s
Overall bit rate : 16.1 Mbps
Video
ID : 224 (0xE0)
Format : MPEG Video
Format version : Version 2
Format profile : Main@High
Format settings, BVOP : Yes
Format settings, Matrix : Default
Format settings, GOP : M=3, N=12
Duration : 4mn 10s
Bit rate mode : Variable
Bit rate : 15.4 Mbps
Nominal bit rate : 18.5 Mbps
Width : 1 920 pixels
Height : 1 080 pixels
Display aspect ratio : 16:9
Frame rate : 25.000 fps
Standard : PAL
Color space : YUV
Chroma subsampling : 4:2:0
Bit depth : 8 bits
Scan type : Interlaced
Scan order : Top Field First
Compression mode : Lossy
Bits/(Pixel*Frame) : 0.298
Stream size : 460 MiB (96%)
Audio
ID : 192 (0xC0)
Format : MPEG Audio
Format version : Version 1
Format profile : Layer 2
Duration : 4mn 10s
Bit rate mode : Constant
Bit rate : 384 Kbps
Channel(s) : 2 channels
Sampling rate : 48.0 KHz
Compression mode : Lossy
Video delay : -80ms
Stream size : 11.5 MiB (2%)
Благодарности релизеру (14)

Торрент:

Статус:

Размер:

Зарегистрирован   [ 2013-11-02 10:10 ]

проверено

482 MB

 
 Мнение о фильме (4)





Я смотрел по тв мне не очень!!!!!!!!!!!
 

Красиво, так хотелось ветку взять в руки
 

Посмотрим, увидим, отпишемся. Спасибо!
 

по мне так неочень