Торренты   
 
 

 

Турбо в 3Д / Turbo 3D (Дэвид Сорен / David Soren) [2013, Мультфильм, Комедия, Приключения, Семейный, Спорт, BDrip, 1080p]Full OverUnder / Вертикальная стереопара

Рейтинг 3D:
194 голосов
8.3
Рейтинг фильма:
193 голосов
8.1
 
Вы должны быть авторизированы,
чтобы ставить оценки


Турбо / Turbo
Год выпуска: 2013
Страна: США
Студия: 20th Century Fox, DreamWorks Animation SKG
Жанр: Мультфильм, Комедия, Приключения, Семейный, Спорт
Продолжительность: 1:35:41
Перевод: Профессиональный (дублированный)
Русские субтитры: нет
Режиссер на русском: Дэвид Сорен
Режиссер на английском: David Soren
В ролях: Райан Рейнольдс, Пол Джаматти, Майкл Пенья, Снуп Догг, Майя Рудольф, Мишель Родригес, Сэмюэл Л. Джексон, Луис Гусман, Билл Хейдер, Бен Шварц, Тимур Родригез, Саймон, Юлия Морозова, Станислав Концевич, Олег Куликович
Описание: Ничто так не раздражает темпераментную, мечтающую о скорости улитку с говорящим именем Турбо, как неспешная жизнь, медленные разговоры, заторможенные соседи. Пусть наш герой выглядит большим чудаком в этом вялом, неторопливом мире, пусть он идёт вопреки закону природы о «рождённом ползать», но если в сердце горит «пламенный мотор», а душа верит в чудо, оно просто не имеет права не произойти!
Сэмпл: http://www.sendspace.com/file/d15z5l
Качество: BDrip
Контейнер: MKV
Формат 3D: OverUnder / Вертикальная стереопара
Порядок ракурсов: левый ракурс первый
Видео кодек: x264
Аудио кодек: DTS
Видео: AVC / High@L5.0 / 23,976 fps / 1920х1600 / 9859 Кбит/сек
Аудио: Русский / DTS / 48 KHz / 5.1 ch / 755 Кбит/сек
Аудио 2: Украинский / AC3 / 48 KHz / 5.1 ch / 448 Kbps
Аудио 3: Английский / AC3 / 48 KHz / 5.1 ch / 640 Kbps
Релиз группы: ВНИМАНИЕ ! На встроенных ТВ-плеерах работать не будет!!!
Железные плееры на которых воспроизводятся полные стереопары:Popcorn C-200 , Dune HD Smart D1 , Dune HD DUO , Dune HD Smart H1 , Dune HD Smart B1 , Dune HD Max , Dune HD TV-303D , Dune HD Base 3D , Dune HD TV-301

MediaInfo

Общее
Уникальный идентификатор : 200766726472746212877894636533694579784 (0x970A43D956385E9F888B30013207C448)
Полное имя : e:\закачки\Turbo.Rip by SeRoGa00.mkv
Формат : Matroska
Версия формата : Version 2
Размер файла : 7,98 Гбайт
Продолжительность : 1 ч. 35 м.
Общий поток : 11,9 Мбит/сек
Дата кодирования : UTC 2013-11-03 01:50:32
Программа кодирования : mkvmerge v3.4.0 ('Rapunzel') сборка от May 15 2010 09:38:20
Библиотека кодирования : libebml v0.8.0 + libmatroska v0.9.0
Видео
Идентификатор : 1
Формат : AVC
Формат/Информация : Advanced Video Codec
Профиль формата : High@L5.0
Параметр CABAC формата : Да
Параметр ReFrames формата : 4 кадра
Идентификатор кодека : V_MPEG4/ISO/AVC
Продолжительность : 1 ч. 35 м.
Битрейт : 9859 Кбит/сек
Ширина : 1920 пикселей
Высота : 1600 пикселей
Соотношение сторон : 1,200
Частота кадров : 23,976 кадра/сек
Цветовое пространство : YUV
Субдискретизация насыщенности : 4:2:0
Битовая глубина : 8 бит
Тип развёртки : Прогрессивная
Бит/(Пиксели*Кадры) : 0.134
Размер потока : 6,59 Гбайт (83%)
Заголовок : Rip by SeRoGa00
Библиотека кодирования : x264 core 138 r2356 a1d3d17
Настройки программы : cabac=1 / ref=4 / deblock=1:-3:-3 / analyse=0x3:0x113 / me=umh / subme=9 / psy=1 / psy_rd=1.00:0.15 / mixed_ref=1 / me_range=24 / chroma_me=1 / trellis=2 / 8x8dct=1 / cqm=0 / deadzone=21,11 / fast_pskip=1 / chroma_qp_offset=-3 / threads=9 / lookahead_threads=1 / sliced_threads=0 / nr=0 / decimate=1 / interlaced=0 / bluray_compat=0 / constrained_intra=0 / bframes=8 / b_pyramid=2 / b_adapt=2 / b_bias=0 / direct=3 / weightb=1 / open_gop=0 / weightp=2 / keyint=250 / keyint_min=23 / scenecut=40 / intra_refresh=0 / rc_lookahead=60 / rc=crf / mbtree=1 / crf=18.0 / qcomp=0.60 / qpmin=10 / qpmax=69 / qpstep=4 / vbv_maxrate=40000 / vbv_bufsize=40000 / crf_max=0.0 / nal_hrd=none / ip_ratio=1.40 / aq=1:1.00
Язык : English
Аудио #1
Идентификатор : 2
Формат : DTS
Формат/Информация : Digital Theater Systems
Идентификатор кодека : A_DTS
Продолжительность : 1 ч. 35 м.
Вид битрейта : Постоянный
Битрейт : 755 Кбит/сек
Каналы : 6 каналов
Расположение каналов : Front: L C R, Side: L R, LFE
Частота : 48,0 КГц
Битовая глубина : 24 бит
Метод сжатия : С потерями
Размер потока : 516 Мбайт (6%)
Язык : Russian
Аудио #2
Идентификатор : 3
Формат : AC-3
Формат/Информация : Audio Coding 3
Расширение режима : CM (complete main)
Идентификатор кодека : A_AC3
Продолжительность : 1 ч. 35 м.
Вид битрейта : Постоянный
Битрейт : 448 Кбит/сек
Каналы : 6 каналов
Расположение каналов : Front: L C R, Side: L R, LFE
Частота : 48,0 КГц
Битовая глубина : 16 бит
Метод сжатия : С потерями
Размер потока : 307 Мбайт (4%)
Язык : Ukrainian
Аудио #3
Идентификатор : 4
Формат : AC-3
Формат/Информация : Audio Coding 3
Расширение режима : CM (complete main)
Идентификатор кодека : A_AC3
Продолжительность : 1 ч. 35 м.
Вид битрейта : Постоянный
Битрейт : 640 Кбит/сек
Каналы : 6 каналов
Расположение каналов : Front: L C R, Side: L R, LFE
Частота : 48,0 КГц
Битовая глубина : 16 бит
Метод сжатия : С потерями
Размер потока : 438 Мбайт (5%)
Язык : English

Скриншоты


Остальные раздачи этого фильма (4)
Благодарности релизеру (7)

Торрент:

Статус:

Размер:

Зарегистрирован   [ 2013-11-03 06:43 ]

проверено

7.98 GB

 
 Мнение о фильме (64)

1, 2, 3, 4  След.






Спасибо!!!!Хороший мульт,забавный!!!!
 

Все отлично.Тут и мультфильм хороший и 3D оставило свой след и вылеты есть. Понравилось качество изображения.
 

Хороший детский мультфильм с вылетами ! Спасибо !
 
евгения мурашко Профиль 02-Ноя-2013 03:59

Большое спасибо. Очень хороший мульт.
 
Виталий Цыганов Профиль 02-Ноя-2013 12:38

Отличный мульт,3d нормальное
 

Мультик хороший. Большое спасибо
 

Прекрасный мультик, отличное 3D, отличное исполнение рипа. Спасибо огромное!!!
 

Отлично сделан рип, 3D очень понравилось, добавил
литовскую звуковую дорожку,внучки в восторге.
Спасибо огромное!
 

Отично!!!
 

Прикольный мультик,всем понравился. Смотрим ещё раз.
 

Спасибо!!!Очень понравилось особенно дочке.
 
евгений 2012 Профиль 04-Ноя-2013 08:28

МУЛЬТ ПРОСТО ШИКАРНЫЙ 3Д НА ВЫСОТЕ!!!СЮЖЕТ БОМБИСИМО!
 

Я в восторге от этого мультика, да и ребенок рад, 3Д на высоте все замечательно. 5 баллов !!!
 

Конкретный мульт ,спасибо всем!!!!
 
евгений 2012 Профиль 05-Ноя-2013 21:27

Хороший мультфильм. 3Д в норме.
 
Алексей Вахляев Профиль 06-Ноя-2013 09:00

релизеру большое спасибо! сюжет, типа, "вторых" тачек - не очень. 3д - хорошее
 

Хороший мультфильм. 3Д в норме.
 

спс все норм
 

лицезрел мульт в театре, оч. понравился, терь дома позыркаю)))
 

Спасибо! С удовольствием посмотрели- оставляю в коллекции.
 

Страница 1 из 4

1, 2, 3, 4  След.