Торренты   
 
 

 

Человек из стали / Man of Steel (Зак Снайдер / Zack Snyder) [2013 г., OverUnder]

Человек из стали / Man of Steel
Год выпуска: 2013
Страна: США, Канада, Великобритания
Жанр: Фантастика, Фэнтези, Боевик, Приключения
Продолжительность: 02:23:03
Перевод: Профессиональный (полное дублирование)
Режиссер: Зак Снайдер / Zack Snyder
В ролях: Генри Кавилл
Эми Адамс
Майкл Шеннон
Рассел Кроу
Дайан Лэйн
Кевин Костнер
Антье Трауэ
Лоренс Фишбёрн
Кристофер Мелони
Гарри Дж. Ленникс
Описание: Кларк Кент/Кал-Эл — молодой человек, который чувствует себя чужаком из-за своей невероятной силы. Много лет назад он был отправлен на Землю с развитой планеты Криптон, и теперь задается вопросом: зачем?
Воспитанный приемными родителями Мартой и Джонатаном Кентами, Кларк знает: обладать сверхспособностями — значит принимать сложные решения. Но когда человечество более всего нуждается в стабильности, оно подвергается нападению. Сможет ли герой восстановить мир, или воспользуется своей силой для того, чтобы окончательно его разрушить?
Доп. информация:
Качество: BDRip
Контейнер: MKV
Формат 3D: Half OverUnder / Вертикальная анаморфная стереопара
Порядок ракурсов: левый ракурс первый
Видео кодек: x264
Аудио кодек: AC3
Видео: AVC / 23,976 fps / 1920х1080p / 18.6 Mbps
Аудио:
#1 - Русский / AC3 / 48 KHz / 5.1 ch / 640 Kbps (Дубляж - BD CEE)
#2 - Английский / AC3 / 48 KHz / 5.1 ch / 640 Kbps (Original)
Субтитры: (SRT)
Внешние (UTF-8):
#1 - Русские Форсированные (включены по умолчанию)
#2 - Русские Полные
#4 - English Full
#5 - English SDH-Color
Вшитые (softsub):
#1 - Русские Форсированные (включены по умолчанию)
Формат 3D: OverUnder

Media Info

General
Unique ID : 228266744314493593980365124187732033442 (0xABBA9368D41C288CBC8BC15ABD1BBFA2)
Complete name : E:ManOfSteel(2013)3D-halfOU(Ash61)ManOfSteel(2013)3D-halfOU(Ash61).mkv
Format : Matroska
Format version : Version 2
File size : 20.2 GiB
Duration : 2h 23mn
Overall bit rate : 20.3 Mbps
Movie name : Человек из стали / Man of Steel (2013) 3D
Encoded date : UTC 2013-10-20 01:36:26
Writing application : mkvmerge v5.8.0 ('No Sleep / Pillow') built on Sep 2 2012 15:37:04
Writing library : libebml v1.2.3 + libmatroska v1.3.0
Video
ID : 1
Format : AVC
Format/Info : Advanced Video Codec
Format profile : High@L4.1
Format settings, CABAC : Yes
Format settings, ReFrames : 4 frames
Codec ID : V_MPEG4/ISO/AVC
Duration : 2h 23mn
Bit rate : 18.6 Mbps
Width : 1 920 pixels
Height : 1 080 pixels
Display aspect ratio : 16:9
Frame rate mode : Constant
Frame rate : 23.976 fps
Color space : YUV
Chroma subsampling : 4:2:0
Bit depth : 8 bits
Scan type : Progressive
Bits/(Pixel*Frame) : 0.374
Stream size : 18.6 GiB (92%)
Title : BDRip by Ash61
Writing library : x264 core 129 r2245 bc13772
Encoding settings : cabac=1 / ref=4 / deblock=1:-3:-3 / analyse=0x3:0x113 / me=umh / subme=10 / psy=1 / psy_rd=1.00:0.15 / mixed_ref=1 / me_range=32 / chroma_me=1 / trellis=2 / 8x8dct=1 / cqm=0 / deadzone=21,11 / fast_pskip=1 / chroma_qp_offset=-3 / threads=12 / lookahead_threads=2 / sliced_threads=0 / nr=0 / decimate=1 / interlaced=0 / bluray_compat=0 / constrained_intra=0 / bframes=10 / b_pyramid=2 / b_adapt=2 / b_bias=0 / direct=3 / weightb=1 / open_gop=0 / weightp=2 / keyint=250 / keyint_min=23 / scenecut=40 / intra_refresh=0 / rc_lookahead=60 / rc=crf / mbtree=1 / crf=17.0 / qcomp=0.70 / qpmin=0 / qpmax=69 / qpstep=4 / vbv_maxrate=40000 / vbv_bufsize=30000 / crf_max=0.0 / nal_hrd=none / frame-packing=4 / ip_ratio=1.40 / aq=1:0.70
Language : English
Default : Yes
Forced : No
Audio #1
ID : 2
Format : AC-3
Format/Info : Audio Coding 3
Mode extension : CM (complete main)
Format settings, Endianness : Big
Codec ID : A_AC3
Duration : 2h 23mn
Bit rate mode : Constant
Bit rate : 640 Kbps
Channel(s) : 6 channels
Channel positions : Front: L C R, Side: L R, LFE
Sampling rate : 48.0 KHz
Bit depth : 16 bits
Compression mode : Lossy
Stream size : 655 MiB (3%)
Title : Дубляж - BD CEE
Language : Russian
Default : Yes
Forced : No
Audio #2
ID : 3
Format : AC-3
Format/Info : Audio Coding 3
Mode extension : CM (complete main)
Format settings, Endianness : Big
Codec ID : A_AC3
Duration : 2h 23mn
Bit rate mode : Constant
Bit rate : 640 Kbps
Channel(s) : 6 channels
Channel positions : Front: L C R, Side: L R, LFE
Sampling rate : 48.0 KHz
Bit depth : 16 bits
Compression mode : Lossy
Stream size : 655 MiB (3%)
Title : Original
Language : English
Default : No
Forced : No
Text
ID : 4
Format : UTF-8
Codec ID : S_TEXT/UTF8
Codec ID/Info : UTF-8 Plain Text
Title : Форсированные
Language : Russian
Default : Yes
Forced : No
Menu
00:00:00.000 : :1
00:11:16.968 : :2
00:20:01.450 : :3
00:30:09.474 : :4
00:39:21.609 : :5
00:48:57.643 : :6
00:59:03.415 : :7
01:08:57.884 : :8
01:17:35.109 : :9
01:28:36.186 : :10
01:40:47.792 : :11
01:50:55.858 : :12
02:00:53.580 : :13
02:10:13.556 : :14
02:12:49.920 : :15
ManOfSteel(2013)3D-halfOU(Ash61).torrent
Торрент: Не зарегистрирован

Скачать

102 KB

Добавлен: 2013-11-03 21:17
Скачано: 2520 раз
   
Комментарии:





Фильм хороший,а вообще все на любителя и каждый высказывает свои мнения.я привык иметь свое.
 

фильм класс 3д незнаю какое смотрел в 2д
 

Еле досмотрели фильм. Такая тягомотина. Смотрела фильм и думала: как классно, что в кинотеатр не пошла.
 

Файл порченный
 

Топик был перенесен из форума 3D Фильмы в форум Архив

Zagruzin