Торренты   
 
 


Хоббит: Нежданное путешествие / The Hobbit: An Unexpected Journey (Питер Джексон) [2012 г.]

Рейтинг 3D:
8 голосов
4.5
Рейтинг фильма:
7 голосов
4.2
 
Вы должны быть авторизированы,
чтобы ставить оценки


Хоббит: Нежданное путешествие / The Hobbit: An Unexpected Journey
Год выпуска: 2012
Страна: США, Новая Зеландия
Жанр: Фэнтези, Приключения
Продолжительность: 169 мин. / 02:49
Перевод: Профессиональный (полное дублирование)
Режиссер: Питер Джексон
В ролях: Мартин Фриман
Иэн МакКеллен
Ричард Армитедж
Джеймс Несбитт
Кен Стотт
Грэм МакТавиш
Дин О’Горман
Эйдан Тернер
Джед Брофи
Марк Хэдлоу
Описание: Фильм повествует о путешествии Бильбо Бэггинса, который пускается в грандиозный поход, целью которого является отвоевание утраченного королевства гномов Эребор у зловещего дракона Смауга. Совершенно неожиданно с хоббитом налаживает контакт волшебник Гэндальф Серый. Так Бильбо находит себя, присоединяясь к компании тринадцати гномов, возглавляемых легендарным воином, Торином Дубощитом. Их путешествие проляжет через Дикий Край, через предательские земли, населенные гоблинами и орками, смертоносными варгами и гигантскими пауками, народом, меняющим шкуры, и волшебниками.
И хотя их цель находится на Востоке среди пустошей Одинокой Горы, сначала им придется выбраться из туннелей гоблинов, где Бильбо встретит существо, которое изменит его жизнь навсегда… Голлума.
Здесь, один на один с Голлумом, на берегу подземного озера, непритязательный Бильбо Бэггинс обнаружит не только скрытые в глубине души хитрость и отвагу, которые удивят даже его, но и завладеет «прелестным» колечком Голлума, которое обладает нежданными и полезными свойствами… Простое золотое кольцо, c которым связана судьба всего Средиземья, нитями, о которых Бильбо не мог даже вообразить.
Доп. информация: Качество: BDRip 1080p 3D
Видео: MPEG-4 AVC/H.264, 1920 x 1080 pixels, 59.940 fps, 19.5 Mbps, ABR, High@L4.1
Аудио 1: DTS 5.1, 1509 Kbps, English Original
Аудио 2: AC3 5.1, 448 Kbps, Русский Дубляж
Аудио 3: AC3 5.1, 448 Kbps, Украинский Дубляж
Субтитры: English, Estonian, Latvian, Lithuanian, Русские, Русские (Форсированные), Украинские (Форсированные)

Скриншоты




Media Info

Disk 1
General
Unique ID : 186787918635970399471279178889049784960 (0x8C860B6945B716AD9011FE7E64F5C280)
Complete name : E:Video3D 60fpsHobbit 01 1080p 60fps 3d(HOU)HOBBIT1side1.mkv
Format : Matroska
Format version : Version 2
File size : 16.8 GiB
Duration : 1h 33mn
Overall bit rate mode : Variable
Overall bit rate : 25.6 Mbps
Movie name : HOBBIT_PT1_D1.Title100.Bluray3DRip
Encoded date : UTC 2013-04-08 21:50:45
Writing application : mkvmerge v3.4.0 ('Rapunzel') сборка от May 18 2010 22:32:11
Writing library : libebml v0.8.0 + libmatroska v0.9.0
Video
ID : 1
Format : AVC
Format/Info : Advanced Video Codec
Format profile : High@L4.1
MultiView_Count : 2
MultiView_Layout : Both Eye
Format settings, CABAC : Yes
Format settings, ReFrames : 4 frames
Codec ID : V_MPEG4/ISO/AVC
Duration : 1h 33mn
Nominal bit rate : 19.5 Mbps
Width : 1 920 pixels
Height : 1 080 pixels
Display aspect ratio : 16:9
Frame rate mode : Constant
Frame rate : 59.880 fps
Original frame rate : 59.940 fps
Color space : YUV
Chroma subsampling : 4:2:0
Bit depth : 8 bits
Scan type : Progressive
Bits/(Pixel*Frame) : 0.157
Title : Rip by izomsk
Writing library : x264 core 120 r2120kMod 0c7dab9
Encoding settings : cabac=1 / ref=4 / deblock=1:0:0 / analyse=0x3:0x113 / me=umh / subme=7 / psy=1 / fade_compensate=0.00 / psy_rd=1.00:0.00 / mixed_ref=1 / me_range=30 / chroma_me=1 / trellis=2 / 8x8dct=1 / cqm=0 / deadzone=21,11 / fast_pskip=1 / chroma_qp_offset=-2 / threads=12 / sliced_threads=1 / slices=12 / nr=0 / decimate=1 / interlaced=0 / bluray_compat=0 / constrained_intra=0 / bframes=9 / b_pyramid=2 / b_adapt=2 / b_bias=0 / direct=2 / weightb=1 / open_gop=0 / weightp=2 / keyint=300 / keyint_min=30 / scenecut=40 / intra_refresh=0 / rc=abr / mbtree=0 / bitrate=19500 / ratetol=1.0 / qcomp=0.60 / qpmin=10 / qpmax=51 / qpstep=4 / ip_ratio=1.40 / pb_ratio=1.30 / aq=1:1.00
Language : English
Default : Yes
Forced : No
Audio #1
ID : 2
Format : DTS
Format/Info : Digital Theater Systems
Format profile : MA / Core
Mode : 16
Format settings, Endianness : Big
Codec ID : A_DTS
Duration : 1h 33mn
Bit rate mode : Variable
Bit rate : Unknown / 1 509 Kbps
Channel(s) : 8 channels / 6 channels
Channel positions : Front: L C R, Side: L R, Back: L R, LFE / Front: L C R, Side: L R, LFE
Sampling rate : 48.0 KHz
Bit depth : 24 bits
Compression mode : Lossless / Lossy
Title : Original English
Language : English
Default : No
Forced : No
Audio #2
ID : 3
Format : AC-3
Format/Info : Audio Coding 3
Mode extension : CM (complete main)
Format settings, Endianness : Big
Codec ID : A_AC3
Duration : 1h 33mn
Bit rate mode : Constant
Bit rate : 448 Kbps
Channel(s) : 6 channels
Channel positions : Front: L C R, Side: L R, LFE
Sampling rate : 48.0 KHz
Bit depth : 16 bits
Compression mode : Lossy
Stream size : 300 MiB (2%)
Title : Дублированный Русский
Language : Russian
Default : No
Forced : No
Audio #3
ID : 4
Format : AC-3
Format/Info : Audio Coding 3
Mode extension : CM (complete main)
Format settings, Endianness : Big
Codec ID : A_AC3
Duration : 1h 33mn
Bit rate mode : Constant
Bit rate : 448 Kbps
Channel(s) : 6 channels
Channel positions : Front: L C R, Side: L R, LFE
Sampling rate : 48.0 KHz
Bit depth : 16 bits
Compression mode : Lossy
Stream size : 300 MiB (2%)
Title : Дублированный Украинский
Language : Ukrainian
Default : No
Forced : No
Text #1
ID : 5
Format : VobSub
Muxing mode : zlib
Codec ID : S_VOBSUB
Codec ID/Info : The same subtitle format used on DVDs
Title : Английские
Language : English
Default : No
Forced : No
Text #2
ID : 6
Format : VobSub
Muxing mode : zlib
Codec ID : S_VOBSUB
Codec ID/Info : The same subtitle format used on DVDs
Title : Эстонские
Language : Estonian
Default : No
Forced : No
Text #3
ID : 7
Format : VobSub
Muxing mode : zlib
Codec ID : S_VOBSUB
Codec ID/Info : The same subtitle format used on DVDs
Title : Латышские
Language : Latvian
Default : No
Forced : No
Text #4
ID : 8
Format : VobSub
Muxing mode : zlib
Codec ID : S_VOBSUB
Codec ID/Info : The same subtitle format used on DVDs
Title : Литовские
Language : Lithuanian
Default : No
Forced : No
Text #5
ID : 9
Format : VobSub
Muxing mode : zlib
Codec ID : S_VOBSUB
Codec ID/Info : The same subtitle format used on DVDs
Title : Русские
Language : Russian
Default : No
Forced : No
Text #6
ID : 10
Format : VobSub
Muxing mode : zlib
Codec ID : S_VOBSUB
Codec ID/Info : The same subtitle format used on DVDs
Title : Русские Форсированные
Language : Russian
Default : No
Forced : No
Text #7
ID : 11
Format : VobSub
Muxing mode : zlib
Codec ID : S_VOBSUB
Codec ID/Info : The same subtitle format used on DVDs
Title : Украинские Форсированные
Language : Ukrainian
Default : No
Forced : No
Menu
00:00:00.000 : en:(01)00:00:00:000
00:08:51.531 : en:(02)00:08:51:531
00:12:58.903 : en:(03)00:12:58:903
00:16:34.618 : en:(04)00:16:34:618
00:20:50.666 : en:(05)00:20:50:666
00:25:09.007 : en:(06)00:25:09:007
00:33:14.409 : en:(07)00:33:14:409
00:38:26.804 : en:(08)00:38:26:804
00:43:40.367 : en:(09)00:43:40:367
00:50:12.300 : en:(10)00:50:12:300
00:55:16.938 : en:(11)00:55:16:938
00:57:04.838 : en:(12)00:57:04:838
01:07:51.984 : en:(13)01:07:51:984
01:12:11.368 : en:(14)01:12:11:368
01:16:03.559 : en:(15)01:16:03:559
01:22:06.463 : en:(16)01:22:06:463
01:28:49.991 : en:(17)01:28:49:991
01:32:03.518 : en:(18)01:32:03:518
01:33:44.243 : en:(19)01:33:44:243
Disk 2
General
Unique ID : 220312258429698244523073364369067347012 (0xA5BE98F9DBB2BA998410981EB13A0C44)
Complete name : E:Video3D 60fpsHobbit 01 1080p 60fps 3d(HOU)HOBBIT1side2.mkv
Format : Matroska
Format version : Version 2
File size : 13.7 GiB
Duration : 1h 15mn
Overall bit rate mode : Variable
Overall bit rate : 25.7 Mbps
Movie name : HOBBIT_PT1_D2.Title100.Bluray3DRip
Encoded date : UTC 2013-04-09 03:48:48
Writing application : mkvmerge v3.4.0 ('Rapunzel') сборка от May 18 2010 22:32:11
Writing library : libebml v0.8.0 + libmatroska v0.9.0
Video
ID : 1
Format : AVC
Format/Info : Advanced Video Codec
Format profile : High@L4.1
MultiView_Count : 2
MultiView_Layout : Both Eye
Format settings, CABAC : Yes
Format settings, ReFrames : 4 frames
Codec ID : V_MPEG4/ISO/AVC
Duration : 1h 15mn
Nominal bit rate : 19.5 Mbps
Width : 1 920 pixels
Height : 1 080 pixels
Display aspect ratio : 16:9
Frame rate mode : Constant
Frame rate : 59.880 fps
Original frame rate : 59.940 fps
Color space : YUV
Chroma subsampling : 4:2:0
Bit depth : 8 bits
Scan type : Progressive
Bits/(Pixel*Frame) : 0.157
Title : Rip by izomsk
Writing library : x264 core 120 r2120kMod 0c7dab9
Encoding settings : cabac=1 / ref=4 / deblock=1:0:0 / analyse=0x3:0x113 / me=umh / subme=7 / psy=1 / fade_compensate=0.00 / psy_rd=1.00:0.00 / mixed_ref=1 / me_range=30 / chroma_me=1 / trellis=2 / 8x8dct=1 / cqm=0 / deadzone=21,11 / fast_pskip=1 / chroma_qp_offset=-2 / threads=12 / sliced_threads=1 / slices=12 / nr=0 / decimate=1 / interlaced=0 / bluray_compat=0 / constrained_intra=0 / bframes=9 / b_pyramid=2 / b_adapt=2 / b_bias=0 / direct=2 / weightb=1 / open_gop=0 / weightp=2 / keyint=300 / keyint_min=30 / scenecut=40 / intra_refresh=0 / rc=abr / mbtree=0 / bitrate=19500 / ratetol=1.0 / qcomp=0.60 / qpmin=10 / qpmax=51 / qpstep=4 / ip_ratio=1.40 / pb_ratio=1.30 / aq=1:1.00
Language : English
Default : Yes
Forced : No
Audio #1
ID : 2
Format : DTS
Format/Info : Digital Theater Systems
Format profile : MA / Core
Mode : 16
Format settings, Endianness : Big
Codec ID : A_DTS
Duration : 1h 15mn
Bit rate mode : Variable
Bit rate : Unknown / 1 509 Kbps
Channel(s) : 8 channels / 6 channels
Channel positions : Front: L C R, Side: L R, Back: L R, LFE / Front: L C R, Side: L R, LFE
Sampling rate : 48.0 KHz
Bit depth : 24 bits
Compression mode : Lossless / Lossy
Title : Original English
Language : English
Default : No
Forced : No
Audio #2
ID : 3
Format : AC-3
Format/Info : Audio Coding 3
Mode extension : CM (complete main)
Format settings, Endianness : Big
Codec ID : A_AC3
Duration : 1h 15mn
Bit rate mode : Constant
Bit rate : 448 Kbps
Channel(s) : 6 channels
Channel positions : Front: L C R, Side: L R, LFE
Sampling rate : 48.0 KHz
Bit depth : 16 bits
Compression mode : Lossy
Stream size : 243 MiB (2%)
Title : Дубляж Русский
Language : Russian
Default : No
Forced : No
Audio #3
ID : 4
Format : AC-3
Format/Info : Audio Coding 3
Mode extension : CM (complete main)
Format settings, Endianness : Big
Codec ID : A_AC3
Duration : 1h 15mn
Bit rate mode : Constant
Bit rate : 448 Kbps
Channel(s) : 6 channels
Channel positions : Front: L C R, Side: L R, LFE
Sampling rate : 48.0 KHz
Bit depth : 16 bits
Compression mode : Lossy
Stream size : 243 MiB (2%)
Title : Дубляж Украинский
Language : Ukrainian
Default : No
Forced : No
Text #1
ID : 5
Format : VobSub
Muxing mode : zlib
Codec ID : S_VOBSUB
Codec ID/Info : The same subtitle format used on DVDs
Title : Етпдшыр
Language : English
Default : No
Forced : No
Text #2
ID : 6
Format : VobSub
Muxing mode : zlib
Codec ID : S_VOBSUB
Codec ID/Info : The same subtitle format used on DVDs
Title : Estonian
Language : Estonian
Default : No
Forced : No
Text #3
ID : 7
Format : VobSub
Muxing mode : zlib
Codec ID : S_VOBSUB
Codec ID/Info : The same subtitle format used on DVDs
Title : Latvian
Language : Latvian
Default : No
Forced : No
Text #4
ID : 8
Format : VobSub
Muxing mode : zlib
Codec ID : S_VOBSUB
Codec ID/Info : The same subtitle format used on DVDs
Title : Liithuanian
Language : Lithuanian
Default : No
Forced : No
Text #5
ID : 9
Format : VobSub
Muxing mode : zlib
Codec ID : S_VOBSUB
Codec ID/Info : The same subtitle format used on DVDs
Title : Русские
Language : Russian
Default : No
Forced : No
Text #6
ID : 10
Format : VobSub
Muxing mode : zlib
Codec ID : S_VOBSUB
Codec ID/Info : The same subtitle format used on DVDs
Title : Руссие Форсированные
Language : Russian
Default : No
Forced : No
Text #7
ID : 11
Format : VobSub
Muxing mode : zlib
Codec ID : S_VOBSUB
Codec ID/Info : The same subtitle format used on DVDs
Title : Ukrainian Forced
Language : Ukrainian
Default : No
Forced : No
Menu
00:00:00.000 : en:(01)00:00:00:000
00:06:49.117 : en:(02)00:06:49:117
00:09:26.357 : en:(03)00:09:26:357
00:15:32.473 : en:(04)00:15:32:473
00:20:24.097 : en:(05)00:20:24:097
00:23:17.604 : en:(06)00:23:17:604
00:36:47.455 : en:(07)00:36:47:455
00:38:45.531 : en:(08)00:38:45:531
00:39:57.228 : en:(09)00:39:57:228
00:44:18.947 : en:(10)00:44:18:947
00:46:28.869 : en:(11)00:46:28:869
00:49:18.622 : en:(12)00:49:18:622
01:00:18.072 : en:(13)01:00:18:072
01:05:47.068 : en:(14)01:05:47:068
01:15:56.468 : en:(15)01:15:56:468
Благодарности релизеру (3)

Торрент:

Статус:

Размер:

Зарегистрирован   [ 2013-11-03 13:59 ]

# сомнительно

30.46 GB