Торренты   
 
 

 

Железный человек 3 / Iron Man 3 (Шейн Блэк) [2013 г., SideBySide]

Рейтинг 3D:
19 голосов
7.6
Рейтинг фильма:
19 голосов
7.8
 
Вы должны быть авторизированы,
чтобы ставить оценки


Железный человек 3 / Iron Man 3
Год выпуска: 2013
Страна: США, Китай
Жанр: Фантастика, Фэнтези, Боевик, Приключения
Продолжительность: 131 мин. / 02:11
Перевод: Профессиональный (полное дублирование)
Режиссер: Шейн Блэк
В ролях: Роберт Дауни мл.
Гвинет Пэлтроу
Дон Чидл
Гай Пирс
Бен Кингсли
Джеймс Бэдж Дэйл
Ребекка Холл
Тай Симпкинс
Уильям Сэдлер
Джон Фавро
Описание: Когда мир Старка рушится на его глазах по вине неизвестных противников, Тони жаждет найти виновных и свести с ними счеты. Оказавшись в безвыходной ситуации, Старк может рассчитывать только на себя и свою изобретательность, чтобы защитить тех, кто ему дорог. Это становится настоящим испытанием для героя, которому придется не только сражаться с коварным врагом, но и разобраться в себе, чтобы найти ответ на вопрос, который давно его тревожит: что важнее — человек или костюм?
Бюджет:
$200 000 000
Сборы в США:
$409 013 994
Сборы в мире:
+ $805 700 000 = $1 214 713 994 сборы
Сборы в России:
$44 507 708
Доп. информация: Качество: BDRip
Формат: MKV
Формат 3D: Half-SBS / Горизонтальная анаморфная стереопара
Порядок ракурсов: Параллельная пара
Видео кодек: H.264 (AVC)
Аудио кодеk: AC3
Видео: 1920x800 (2.40:1), 23.976 fps, AVC, 12.0 Mbps
Аудио: Аудио #1: AC3, 640 Kbps, 48.0 KHz, 6 ch RUS Dub
Аудио #2: AC3, 192 Kbps, 48.0 KHz, 2 ch UKR Dub
Аудио #3: AC3, 640 Kbps, 48.0 KHz, 6 ch ENG
Субтитры: Russian (Форсированные), Ukrainian (Форсированные), Russian (Полные), Ukrainian (Полные), English (full)
Формат 3D: SideBySide
Порядок ракурсов: Параллельная пара

Скриншоты



Media Info

General
Unique ID : 199249838042813900697643246996504271837 (0x95E61F79A8525BF6A958781F803D5BDD)
Complete name : Iron.Man.3.2013.3D.BluRay.HSBS.1080p-CHD3D .mkv
Format : Matroska
Format version : Version 4 / Version 2
File size : 12.5 GiB
Duration : 2h 10mn
Overall bit rate : 13.8 Mbps
Movie name : IRON_MAN_3_3D_BLUEBIRD.Title800.Bluray3DRip
Encoded date : UTC 2013-08-23 08:21:21
Writing application : mkvmerge v6.2.0 ('Promised Land') built on Apr 28 2013 12:22:01
Writing library : libebml v1.3.0 + libmatroska v1.4.0
Video
ID : 1
Format : AVC
Format/Info : Advanced Video Codec
Format profile : High@L4.1
Format settings, CABAC : Yes
Format settings, ReFrames : 3 frames
Format settings, GOP : M=4, N=24
Codec ID : V_MPEG4/ISO/AVC
Duration : 2h 10mn
Bit rate : 12.0 Mbps
Width : 1 920 pixels
Height : 800 pixels
Display aspect ratio : 2.40:1
Frame rate mode : Constant
Frame rate : 23.976 fps
Color space : YUV
Chroma subsampling : 4:2:0
Bit depth : 8 bits
Scan type : Progressive
Bits/(Pixel*Frame) : 0.326
Stream size : 10.9 GiB (87%)
Writing library : x264 core
Default : Yes
Forced : No
Color primaries : BT.709
Transfer characteristics : BT.709
Matrix coefficients : BT.709
Audio #1
ID : 2
Format : AC-3
Format/Info : Audio Coding 3
Mode extension : CM (complete main)
Format settings, Endianness : Big
Codec ID : A_AC3
Duration : 2h 10mn
Bit rate mode : Constant
Bit rate : 640 Kbps
Channel(s) : 6 channels
Channel positions : Front: L C R, Side: L R, LFE
Sampling rate : 48.0 KHz
Bit depth : 16 bits
Compression mode : Lossy
Stream size : 598 MiB (5%)
Language : Russian
Default : Yes
Forced : No
Audio #2
ID : 3
Format : AC-3
Format/Info : Audio Coding 3
Mode extension : CM (complete main)
Format settings, Endianness : Big
Codec ID : A_AC3
Duration : 2h 10mn
Bit rate mode : Constant
Bit rate : 192 Kbps
Channel(s) : 2 channels
Channel positions : Front: L R
Sampling rate : 48.0 KHz
Bit depth : 16 bits
Compression mode : Lossy
Stream size : 179 MiB (1%)
Language : Ukrainian
Default : No
Forced : No
Audio #3
ID : 4
Format : AC-3
Format/Info : Audio Coding 3
Mode extension : CM (complete main)
Format settings, Endianness : Big
Codec ID : A_AC3
Duration : 2h 10mn
Bit rate mode : Constant
Bit rate : 640 Kbps
Channel(s) : 6 channels
Channel positions : Front: L C R, Side: L R, LFE
Sampling rate : 48.0 KHz
Bit depth : 16 bits
Compression mode : Lossy
Stream size : 598 MiB (5%)
Language : English
Default : No
Forced : No
Text #1
ID : 5
Format : UTF-8
Codec ID : S_TEXT/UTF8
Codec ID/Info : UTF-8 Plain Text
Title : forced
Language : Russian
Default : Yes
Forced : No
Text #2
ID : 6
Format : UTF-8
Codec ID : S_TEXT/UTF8
Codec ID/Info : UTF-8 Plain Text
Title : forced
Language : Ukrainian
Default : No
Forced : No
Text #3
ID : 7
Format : UTF-8
Codec ID : S_TEXT/UTF8
Codec ID/Info : UTF-8 Plain Text
Title : full
Language : Russian
Default : No
Forced : No
Text #4
ID : 8
Format : UTF-8
Codec ID : S_TEXT/UTF8
Codec ID/Info : UTF-8 Plain Text
Title : full
Language : Ukrainian
Default : No
Forced : No
Text #5
ID : 9
Format : UTF-8
Codec ID : S_TEXT/UTF8
Codec ID/Info : UTF-8 Plain Text
Title : full
Language : English
Default : No
Forced : No
Menu
00:00:00.000 : en:(01)00:00:00:000
00:04:52.750 : en:(02)00:04:52:750
00:07:55.433 : en:(03)00:07:55:433
00:12:12.440 : en:(04)00:12:12:440
00:19:04.101 : en:(05)00:19:04:101
00:23:47.884 : en:(06)00:23:47:884
00:29:47.702 : en:(07)00:29:47:702
00:39:46.384 : en:(08)00:39:46:384
00:45:56.044 : en:(09)00:45:56:044
00:59:19.639 : en:(10)00:59:19:639
01:01:56.921 : en:(11)01:01:56:921
01:09:24.451 : en:(12)01:09:24:451
01:18:41.508 : en:(13)01:18:41:508
01:23:52.944 : en:(14)01:23:52:944
01:37:55.995 : en:(15)01:37:55:995
01:56:18.304 : en:(16)01:56:18:304
01:59:38.754 : en:(17)01:59:38:754
02:10:32.616 : en:(18)02:10:32:616
Благодарности релизеру (26)

Торрент:

Статус:

Размер:

Зарегистрирован   [ 2013-11-03 18:39 ]

# сомнительно

12.54 GB

 
 Мнение о фильме (1)





лично мне фильм не понравился. максимум для школьников. 3d .... тут написанно 3Д ?!!!!
херь.