Торренты   
 
 

 

Приключения Тинтина: Тайна Единорога / The Adventures of Tintin (Стивен Спилберг) [2011 г., SideBySide]

Рейтинг 3D:
2 голосов
10
Рейтинг фильма:
2 голосов
10
 
Вы должны быть авторизированы,
чтобы ставить оценки


Приключения Тинтина: Тайна Единорога / The Adventures of Tintin
Год выпуска: 2011
Страна: США, Новая Зеландия
Жанр: Мультфильм, Боевик, Детектив, Приключения, Семейный
Продолжительность: 101 мин. / 01:41
Перевод: Профессиональный (полное дублирование)
Режиссер: Стивен Спилберг
В ролях: Джейми Белл
Энди Серкис
Дэниэл Крэйг
Саймон Пегг
Ник Фрост
Дэниэл Мейс
Гад Эльмалех
Тоби Джонс
Джо Старр
Енн Рейтел
Описание: Главный герой — молодой газетный репортёр Тинтин. Благодаря своей профессии он путешествует по всему миру и становится участником увлекательных приключений.
Доп. информация: Формат: MKV
Качество: BDRip 1080p |
Формат 3D: Full SideBySide / Горизонтальная стереопара
Видео: 3840x816, 23.976 fps, x264, AVC, ~19,8 Mbit/s, 0.264 bit/pixel
Аудио 1: Russian 48 kHz, AC3, 3/2 (L,C,R,l,r) + LFE ch, ~448.00 kbps
Аудио 2: English 48 kHz, DTS, 3/2 (L,C,R,l,r) + LFE ch, ~1510 kbps
Размер: 16.22 GB
Субтитры: Русские (SRT), Английские (SRT), Английские (PGS)
Формат 3D: SideBySide
Порядок ракурсов: Параллельная пара

Скриншоты



Media Info

Общее
Уникальный идентификатор : 228771813108655248158951580606625720179 (0xAC1BD9393F4436ECAA60A4122ACBA773)
Полное имя : E:ФильмыThe Adventures of Tintin 1080 3D Full-SBS Dub.mkv
Формат : Matroska
Версия формата : Version 2
Размер файла : 16,2 Гбайт
Продолжительность : 1 ч. 46 м.
Общий поток : 21,7 Мбит/сек
Дата кодирования : UTC 2012-02-28 21:35:03
Программа кодирования : mkvmerge v5.0.1 ('Es ist Sommer') built on Oct 24 2011 19:45:06
Библиотека кодирования : libebml v1.2.2 + libmatroska v1.3.0
Видео
Идентификатор : 1
Формат : AVC
Формат/Информация : Advanced Video Codec
Профиль формата : High@L4.1
Параметр CABAC формата : Да
Параметр ReFrames формата : 4 кадра
Режим смешивания : Header stripping
Идентификатор кодека : V_MPEG4/ISO/AVC
Продолжительность : 1 ч. 46 м.
Битрейт : 19,8 Мбит/сек
Ширина : 3840 пикселей
Высота : 816 пикселей
Соотношение сторон : 4,706
Частота кадров : 23,976 кадра/сек
Цветовое пространство : YUV
Субдискретизация насыщенности : 4:2:0
Битовая глубина : 8 бит
Тип развёртки : Прогрессивная
Бит/(Пиксели*Кадры) : 0.264
Размер потока : 14,4 Гбайт (89%)
Заголовок : Full SBS
Библиотека кодирования : x264 core 120 r2164 da19765
Настройки программы : cabac=1 / ref=4 / deblock=1:3:-3 / analyse=0x3:0x133 / me=umh / subme=10 / psy=1 / psy_rd=0.90:0.00 / mixed_ref=1 / me_range=32 / chroma_me=1 / trellis=2 / 8x8dct=1 / cqm=0 / deadzone=21,11 / fast_pskip=0 / chroma_qp_offset=-2 / threads=12 / sliced_threads=0 / nr=0 / decimate=0 / interlaced=0 / bluray_compat=0 / constrained_intra=0 / bframes=8 / b_pyramid=2 / b_adapt=2 / b_bias=0 / direct=3 / weightb=1 / open_gop=0 / weightp=2 / keyint=250 / keyint_min=23 / scenecut=40 / intra_refresh=0 / rc_lookahead=40 / rc=2pass / mbtree=1 / bitrate=19800 / ratetol=1.0 / qcomp=0.60 / qpmin=0 / qpmax=69 / qpstep=4 / cplxblur=20.0 / qblur=0.5 / vbv_maxrate=40000 / vbv_bufsize=30000 / nal_hrd=none / frame-packing=3 / ip_ratio=1.40 / aq=2:0.60
Язык : Russian
Default : Да
Forced : Нет
Аудио #1
Идентификатор : 2
Формат : AC-3
Формат/Информация : Audio Coding 3
Расширение режима : CM (complete main)
Режим смешивания : Header stripping
Идентификатор кодека : A_AC3
Продолжительность : 1 ч. 46 м.
Вид битрейта : Постоянный
Битрейт : 448 Кбит/сек
Каналы : 6 каналов
Расположение каналов : Front: L C R, Side: L R, LFE
Частота : 48,0 КГц
Битовая глубина : 16 бит
Метод сжатия : С потерями
Размер потока : 342 Мбайт (2%)
Заголовок : Rus Dub
Язык : Russian
Default : Да
Forced : Да
Аудио #2
Идентификатор : 3
Формат : DTS
Формат/Информация : Digital Theater Systems
Режим смешивания : Header stripping
Идентификатор кодека : A_DTS
Продолжительность : 1 ч. 46 м.
Вид битрейта : Постоянный
Битрейт : 1510 Кбит/сек
Каналы : 6 каналов
Расположение каналов : Front: L C R, Side: L R, LFE
Частота : 48,0 КГц
Битовая глубина : 24 бит
Метод сжатия : С потерями
Размер потока : 1,13 Гбайт (7%)
Заголовок : Eng Original
Язык : English
Default : Нет
Forced : Нет
Текст #1
Идентификатор : 4
Формат : UTF-8
Идентификатор кодека : S_TEXT/UTF8
Идентификатор кодека/Информация : UTF-8 Plain Text
Заголовок : Rus SRT
Язык : Russian
Default : Да
Forced : Да
Текст #2
Идентификатор : 5
Формат : UTF-8
Идентификатор кодека : S_TEXT/UTF8
Идентификатор кодека/Информация : UTF-8 Plain Text
Заголовок : Eng SRT
Язык : English
Default : Нет
Forced : Нет
Текст #3
Идентификатор : 6
Формат : PGS
Режим смешивания : zlib
Идентификатор кодека : S_HDMV/PGS
Идентификатор кодека/Информация : The same subtitle format used on BDs/HD-DVDs
Заголовок : Eng PGS
Язык : English
Default : Нет
Forced : Нет
Меню
00:00:00.000 : en:00:00:00.000
00:05:39.297 : en:00:05:39.297
00:12:12.315 : en:00:12:12.315
00:17:11.364 : en:00:17:11.364
00:25:36.869 : en:00:25:36.869
00:32:37.581 : en:00:32:37.581
00:37:55.315 : en:00:37:55.315
00:42:29.839 : en:00:42:29.839
00:50:52.508 : en:00:50:52.508
00:56:27.217 : en:00:56:27.217
01:02:19.611 : en:01:02:19.611
01:11:58.981 : en:01:11:58.981
01:20:03.966 : en:01:20:03.966
01:27:30.996 : en:01:27:30.996
01:34:12.814 : en:01:34:12.814
01:40:30.483 : en:01:40:30.483
Благодарности релизеру (4)

Торрент:

Статус:

Размер:

Зарегистрирован   [ 2013-11-04 13:58 ]

D повтор

16.22 GB

 
Комментарии:





В полном восторге и от мультфильма, и от 3D. Местами просто кажется, что смотришь не мультик, а качественный художественный фильм.
 

Топик был перенесен из форума 3D Мультфильмы в форум Архив

Zagruzin