Торренты   
 
 

 

Тихоокеанский рубеж / pacific rim (гильермо дель торо) [2013 г., Anamorph OverUnder]

Рейтинг 3D:
29 голосов
8.3
Рейтинг фильма:
28 голосов
8.0
 
Вы должны быть авторизированы,
чтобы ставить оценки


Тихоокеанский рубеж / pacific rim
Год выпуска: 2013
Страна: США
Жанр: фантастика
Продолжительность: 2:11:17
Перевод: Профессиональный (полное дублирование)
Режиссер: гильермо дель торо
В ролях: Чарли Ханнэм, Идрис Эльба, Ринко Кикучи, Чарли Дэй, Роберт Казински, Макс Мартини, Рон Перлман, Клифтон Коллинз мл., Диего Клаттенхофф, Берн Горман
Описание: Когда из морских глубин поднялись легионы чудовищ, известных как Кайдзу, началась война, которой суждено было забрать миллионы жизней и свести «человеческие ресурсы» почти к нулю всего за несколько лет. Чтобы сражаться с пришельцами, было создано специальное оружие: огромные роботы, названные Джегерами, они управлялись одновременно двумя пилотами, чьи сознания соединены с помощью нейронной связи. Но даже Джегеры оказываются почти бессильны перед лицом безжалостных Кайдзу. На грани поражения у защитников человечества нет выбора, кроме как обратиться к двум весьма сомнительным героям — никому не нужному бывшему пилоту и неопытному стажеру — которые объединились, чтобы повести в бой некогда легендарного, но сейчас устаревшего Джегера. Вместе они оказываются единственной надеждой человечества, последним препятствием перед надвигающимся апокалипсисом
Доп. информация: Перевод: Дублированный [iTunes Russia]
Субтитры: Russian, English
Формат 3D: Вертикальная анаморфная стереопара
Формат: MKV
Качество: BDRip1080
Видео: AVC, 1920x1080, 23.976 fps, 10.5 Mbit/s
Аудио: Russian: AC3, 384 kb/s (6 ch) / English: AC3, 640 Kb/s (6 ch)
Формат 3D: Anamorph OverUnder
Видео: http://multi-up.com/917566

Скриншоты





Media Info

Формат : Matroska
Версия формата : Version 2
Размер файла : 10,6 Гбайт
Продолжительность : 2 ч. 11 м.
Общий поток : 11,5 Мбит/сек
Название фильма : Pacific Rim (2013) by Killbrain
Дата кодирования : UTC 2013-10-27 20:41:44
Программа кодирования : mkvmerge v6.3.0 ('You can't stop me!') built on Jun 28 2013 20:09:41
Библиотека кодирования : libebml v1.3.0 + libmatroska v1.4.0
Видео
Идентификатор : 1
Формат : AVC
Формат/Информация : Advanced Video Codec
Профиль формата : High@L4.1
Параметр CABAC формата : Да
Параметр ReFrames формата : 4 кадра
Идентификатор кодека : V_MPEG4/ISO/AVC
Продолжительность : 2 ч. 11 м.
Битрейт : 10,5 Мбит/сек
Ширина : 1920 пикселей
Высота : 1080 пикселей
Соотношение сторон : 16:9
Режим частоты кадров : Постоянный
Частота кадров : 23,976 кадра/сек
Цветовое пространство : YUV
Субдискретизация насыщенности : 4:2:0
Битовая глубина : 8 бит
Тип развёртки : Прогрессивная
Бит/(Пиксели*Кадры) : 0.211
Размер потока : 9,41 Гбайт (89%)
Заголовок : Pacific Rim 3D (2013)
Библиотека кодирования : x264 core 138 r2358 9e941d1
Настройки программы : cabac=1 / ref=4 / deblock=1:-3:-3 / analyse=0x3:0x113 / me=umh / subme=10 / psy=1 / psy_rd=1.00:0.05 / mixed_ref=1 / me_range=32 / chroma_me=1 / trellis=2 / 8x8dct=1 / cqm=0 / deadzone=21,11 / fast_pskip=0 / chroma_qp_offset=-3 / threads=3 / lookahead_threads=1 / sliced_threads=0 / nr=0 / decimate=0 / interlaced=0 / bluray_compat=0 / constrained_intra=0 / bframes=6 / b_pyramid=2 / b_adapt=2 / b_bias=0 / direct=3 / weightb=1 / open_gop=0 / weightp=2 / keyint=240 / keyint_min=24 / scenecut=40 / intra_refresh=0 / rc_lookahead=60 / rc=2pass / mbtree=0 / bitrate=10500 / ratetol=1.0 / qcomp=0.65 / qpmin=0 / qpmax=69 / qpstep=4 / cplxblur=20.0 / qblur=0.5 / vbv_maxrate=40000 / vbv_bufsize=30000 / nal_hrd=none / frame-packing=4 / ip_ratio=1.40 / pb_ratio=1.30 / aq=1:0.80
Язык : English
Default : Да
Forced : Нет
Аудио #1
Идентификатор : 2
Формат : AC-3
Формат/Информация : Audio Coding 3
Расширение режима : CM (complete main)
Параметр Endianness формата : Big
Идентификатор кодека : A_AC3
Продолжительность : 2 ч. 11 м.
Вид битрейта : Постоянный
Битрейт : 384 Кбит/сек
Каналы : 6 каналов
Расположение каналов : Front: L C R, Side: L R, LFE
Частота : 48,0 КГц
Битовая глубина : 16 бит
Метод сжатия : С потерями
Размер потока : 361 Мбайт (3%)
Язык : Russian
Default : Да
Forced : Нет
Благодарности релизеру (14)

Торрент:

Статус:

Размер:

Зарегистрирован   [ 2013-11-07 11:37 ]

поглощено

10.56 GB

 
Комментарии:





Порой, когда изображение появляется впереди экрана, поневоле забываешь, что это просто кино. Приборы и механизмы кажутся настоящими. Сюжет и игра нормальные для этого жанра. Всё понравилось спасибо.
 

Понравилось. И 3д на хорошем уровне
 

нормальный фильмец один разок можно глянуть
 

Великолепная сказка полностью в духе старого доброго японского жанра про конец света!)))
Сюжет - вполне нормальный для фильмов такого содержания, есть даже порой логика событий, есть и полный брЭд)))
НО - шикарный 3d- просто улетный!!!
В очередной раз советую приобрести последнюю модель очков для пассивной поляризации - а не смотреть в тех-что шли в комплекте!)))
Это не пЕар))))) дома регулярная драчка-кому смотреть именно в них)))
Буду брать вторые)оправдали на все 100%!)
 

ЗД хорошее есть вылеты. Так как фильм основан на идее "БУДУЩЕГО", то смотреть за всякого рода графическими штучками приятно, цифровые таблойды и так далее. Сам сюжет конечно затяжной, но на один раз фильм следует посмотреть.
 

Топик был перенесен из форума 3D Фильмы в форум Архив

Zagruzin