Торренты   
 
 

 

Самолеты / Planes (Клэй Холл) [2013 г., BDrip, Anamorph OverUnder]

Рейтинг 3D:
64 голосов
7.5
Рейтинг фильма:
62 голосов
7.5
 
Вы должны быть авторизированы,
чтобы ставить оценки


© Закрыто правообладателем

Самолеты / Planes
Год выпуска: 2013
Страна: США (DisneyToon Studios)
Жанр: мультфильм, комедия, приключения, семейный
Продолжительность: 01:31:34
Перевод: Профессиональный (полное дублирование) Чистый звук
Режиссер: Клэй Холл
В ролях: Дейн Кук, Стейси Кич, Брэд Гэррет, Тери Хэтчер, Джулия Луис-Дрейфус, Приянка Чопра, Джон Клиз, Седрик «Развлекатель», Карлос Алазраки, Роджер Крэйг Смит
Описание: Дасти Полейполе — скромный трудяга-самолет, работающий сельскохозяйственным распылителем на заштатном провинциальном аэродроме. Однако это не мешает ему мечтать о том, чтобы однажды принять участие в кругосветных гонках самых быстрых самолетов. Одна незадача — Дасти панически боится большой высоты. Поэтому, когда волею случая он все же попадает в число участников отборочного тура воздушных соревнований, ему приходится искать помощи у ветерана военно-морской авиации, отставного истребителя Шкипера. С помощью мудрого наставника Дасти сможет преодолеть свои слабости и бросить вызов надменному чемпиону Рипслингеру, а весь мир будет с замиранием сердца следить за гонкой в небесах!..
Качество: BDrip
Контейнер: MKV
Формат 3D: Anamorph OverUnder / Вертикальная анаморфная стереопара
Видео кодек: x264
Аудио кодек: AC-3
Видео: AVC, High@L4.1, 1920х1080, 23,976 кадра/сек, 7646 Кбит/сек
Аудио:
#1 - Русский / AC3 / 48 KHz / 2.0 ch / 192 Кбит/сек (Чистый звук)
#2 - Английский / AC3 / 48 KHz / 5.1 ch / 640 Кбит/сек (Original)
Субтитры:
#1 - English Full
#2 - English SDH
#3 - English SDH-Color

Скриншоты

Media Info

Код:
Общее
Уникальный идентификатор                 : 245001715062525687588094329831715455942 (0xB8519D2B994A58688DFA7FCE752F43C6)
Полное имя                               : H:\Source\Planes.3D.2013.BD3DRip.Half.OU.x264.AC3.ClearSound.3D-RuGroup.mkv
Формат                                   : Matroska
Версия формата                           : Version 4 / Version 2
Размер файла                             : 5,53 Гбайт
Продолжительность                        : 1 ч. 31 м.
Общий поток                              : 8650 Кбит/сек
Название фильма                          : Planes 3D (2013) release 3D-RuGroup
Дата кодирования                         : UTC 2013-11-07 14:59:18
Программа кодирования                    : mkvmerge v6.3.0 ('You can't stop me!') built on Jul 19 2013 16:27:38
Библиотека кодирования                   : libebml v1.3.0 + libmatroska v1.4.1
Видео
Идентификатор                            : 1
Формат                                   : AVC
Формат/Информация                        : Advanced Video Codec
Профиль формата                          : High@L4.1
Параметр CABAC формата                   : Да
Параметр ReFrames формата                : 4 кадра
Идентификатор кодека                     : V_MPEG4/ISO/AVC
Продолжительность                        : 1 ч. 31 м.
Битрейт                                  : 7646 Кбит/сек
Ширина                                   : 1920 пикселей
Высота                                   : 1080 пикселей
Соотношение сторон                       : 16:9
Режим частоты кадров                     : Постоянный
Частота кадров                           : 23,976 кадра/сек
Цветовое пространство                    : YUV
Субдискретизация насыщенности            : 4:2:0
Битовая глубина                          : 8 бит
Тип развёртки                            : Прогрессивная
Бит/(Пиксели*Кадры)                      : 0.154
Размер потока                            : 4,89 Гбайт (88%)
Библиотека кодирования                   : x264 core 130 r2273 b3065e6
Настройки программы                      : cabac=1 / ref=4 / deblock=1:-3:-3 / analyse=0x3:0x133 / me=umh / subme=10 / psy=1 / psy_rd=1.00:0.15 / mixed_ref=1 / me_range=32 / chroma_me=1 / trellis=2 / 8x8dct=1 / cqm=0 / deadzone=21,11 / fast_pskip=0 / chroma_qp_offset=-3 / threads=12 / lookahead_threads=2 / sliced_threads=0 / nr=0 / decimate=1 / interlaced=0 / bluray_compat=0 / constrained_intra=0 / bframes=7 / b_pyramid=2 / b_adapt=2 / b_bias=0 / direct=3 / weightb=1 / open_gop=0 / weightp=2 / keyint=250 / keyint_min=23 / scenecut=40 / intra_refresh=0 / rc_lookahead=60 / rc=crf / mbtree=1 / crf=17.0 / qcomp=0.60 / qpmin=0 / qpmax=69 / qpstep=4 / vbv_maxrate=50000 / vbv_bufsize=62500 / crf_max=0.0 / nal_hrd=none / ip_ratio=1.40 / aq=1:0.90
Default                                  : Да
Forced                                   : Нет
Аудио #1
Идентификатор                            : 2
Формат                                   : AC-3
Формат/Информация                        : Audio Coding 3
Расширение режима                        : CM (complete main)
Параметр Endianness формата              : Big
Идентификатор кодека                     : A_AC3
Продолжительность                        : 1 ч. 31 м.
Вид битрейта                             : Постоянный
Битрейт                                  : 192 Кбит/сек
Каналы                                   : 2 канала
Расположение каналов                     : Front: L R
Частота                                  : 48,0 КГц
Битовая глубина                          : 16 бит
Метод сжатия                             : С потерями
Размер потока                            : 126 Мбайт (2%)
Заголовок                                : Clear Sound
Язык                                     : Russian
Default                                  : Да
Forced                                   : Нет
Аудио #2
Идентификатор                            : 3
Формат                                   : AC-3
Формат/Информация                        : Audio Coding 3
Расширение режима                        : CM (complete main)
Параметр Endianness формата              : Big
Идентификатор кодека                     : A_AC3
Продолжительность                        : 1 ч. 31 м.
Вид битрейта                             : Постоянный
Битрейт                                  : 640 Кбит/сек
Каналы                                   : 6 каналов
Расположение каналов                     : Front: L C R, Side: L R, LFE
Частота                                  : 48,0 КГц
Битовая глубина                          : 16 бит
Метод сжатия                             : С потерями
Размер потока                            : 419 Мбайт (7%)
Язык                                     : English
Default                                  : Нет
Forced                                   : Нет
Текст #1
Идентификатор                            : 4
Формат                                   : UTF-8
Идентификатор кодека                     : S_TEXT/UTF8
Идентификатор кодека/Информация          : UTF-8 Plain Text
Заголовок                                : full
Язык                                     : English
Default                                  : Нет
Forced                                   : Нет
Текст #2
Идентификатор                            : 5
Формат                                   : UTF-8
Идентификатор кодека                     : S_TEXT/UTF8
Идентификатор кодека/Информация          : UTF-8 Plain Text
Заголовок                                : SDH
Язык                                     : English
Default                                  : Нет
Forced                                   : Нет
Текст #3
Идентификатор                            : 6
Формат                                   : UTF-8
Идентификатор кодека                     : S_TEXT/UTF8
Идентификатор кодека/Информация          : UTF-8 Plain Text
Заголовок                                : Color SDH
Default                                  : Нет
Forced                                   : Нет
Меню
00:00:00.000                             : :1
00:04:41.990                             : :2
00:07:23.234                             : :3
00:09:04.294                             : :4
00:14:38.085                             : :5
00:17:30.549                             : :6
00:24:58.872                             : :7
00:30:10.767                             : :8
00:36:28.186                             : :9
00:40:37.518                             : :10
00:42:51.193                             : :11
00:48:07.801                             : :12
00:51:37.802                             : :13
00:56:22.378                             : :14
01:00:06.144                             : :15
01:01:59.924                             : :16
01:07:05.312                             : :17
01:10:13.042                             : :18
01:12:27.134                             : :19
01:16:26.915                             : :20
--Релиз группы:

Проверено на встроенном плейере ТВ LG 42LW4500
--
Остальные раздачи этого фильма (3)
Благодарности релизеру (41)

Торрент:

Статус:

Размер:

Зарегистрирован   [ 2013-11-07 19:07 ]

© закрыто правообладателем

5.53 GB

 
 Мнение о фильме (17)





Хороший мультфильм и 3Д в норме.
 

Детям очень понравился. 3Д хорошее
 

Нам понравился-очень красиво!РЕКОМЕНДУЮ!
 

Фильм отличный! Смеялись от души. Вот только звук не понравился. Система 5.1 играла как моно...
 

Пересняли Тачки на летный мотив. 3Д в норме. Для детей поучающий фильм.
 

отличный мульт. С внучкой посмотрели с удовольствием.
 
Виталий Цыганов Профиль 15-Ноя-2013 09:42

Посмотреть можно, но не впечетлило
 

Посмотреть разок можно, ибо сюжет мягко говоря средненький и 3/4 фильма проходит в созерцании, и лишь к концу появляется какая-то динамика. Лично меня слабо выраженное 3Д не впечатлило, т.к. ожидал лучшего, смотрел на встроенном плеере LG 37LM620T
 

Мультфильм нормальный, для детишек. А вот 3D... слабовато, порою кажется что отсутствует напрочь.
 

теже тачки только с крыльями
 
АНДРЕЙЗ0Л0Т0К Профиль 30-Ноя-2013 09:56

Не сильно впечатлен ни 3Д ни сюжетом. Сюжет вроде бы как детско-юношеский, но уж больно прямолинейный, герои невыразительны, монотонны и скучны. Сравнивать с "тачками" считаю абсолютно некорректным, этот фильм ИМХО минимум на порядок хуже....
 

Что-то детки без особо интереса посмотрели и повторить не требовали как обычно
 

Спасибо! мультик интересный.
 

Спасибо за напоминание, чтобы оставил отзыв...Закрутился..Извините...Мультик - красочный, Эффект 3D для детей очень иногда неожиданный, чем и интересен...Да и для взрослых тоже увлечение, хотя основные зрители - наши дети...После просмотра тяжело заставить детей обсудить мультик, если взрослые не проявляют своего интереса...Никак не раскачаешь их, а вот когда вместе, то поделиться самыми моментами - это уже наперебой!!! Спасибо за возможность расширять кругозор детей! Респект раздатчику!!!
 

Хороший мульт.
 

мульт хорош и 3d неплоха
 

Похуже тачек, но посмотреть можно.