Торренты   
 
 

 

Тихоокеанский рубеж в 3Д / Pacific Rim 3D (Гильермо дель Торо / Guillermo del Toro) [2013 г., Anamorph OverUnder]

Рейтинг 3D:
18 голосов
8.5
Рейтинг фильма:
19 голосов
7.7
 
Вы должны быть авторизированы,
чтобы ставить оценки



Тихоокеанский рубеж в 3Д
Pacific Rim 3D

«Чтобы сражаться с монстрами, мы создали монстров»
Год выпуска: 2013
Страна: США (Legendary Pictures)
Жанр: Фантастика, фэнтези, боевик, приключения
Продолжительность: 02:11:17
Перевод: Профессиональный (полное дублирование)(Лицензия с BD CEE)
Режиссер: Гильермо дель Торо / Guillermo del Toro

В ролях: Чарли Ханнэм, Идрис Эльба, Ринко Кикучи, Чарли Дэй, Роберт Казински, Макс Мартини, Рон Перлман, Клифтон Коллинз мл., Диего Клаттенхофф, Берн Горман
Описание: Когда из морских глубин поднялись легионы чудовищ, известных как Кайдзу, началась война, которой суждено было забрать миллионы жизней и свести «человеческие ресурсы» почти к нулю всего за несколько лет. Чтобы сражаться с пришельцами, было создано специальное оружие: огромные роботы, названные Джегерами, они управлялись одновременно двумя пилотами, чьи сознания соединены с помощью нейронной связи. Но даже Джегеры оказываются почти бессильны перед лицом безжалостных Кайдзу. На грани поражения у защитников человечества нет выбора, кроме как обратиться к двум весьма сомнительным героям — никому не нужному бывшему пилоту и неопытному стажеру — которые объединились, чтобы повести в бой некогда легендарного, но сейчас устаревшего Джегера. Вместе они оказываются единственной надеждой человечества, последним препятствием перед надвигающимся апокалипсисом.
Качество: BDrip (от ash61)
Контейнер: MKV
Формат 3D: Anamorph OverUnder / Вертикальная анаморфная стереопара
Видео кодек: x264
Аудио кодек: AC3
Видео: AVC / 23,976 fps / 1920х1080p / 19,2 Mbps
Аудио: Русский, украинский, английский / AC3 / 48 KHz / 5.1 ch / 640 Kbps
Субтитры: Русские, английские, украинские

Скриншоты


Media Info

General
Unique ID : 210952736021068900225333225852312181071 (0x9EB404E4BE2CEB3C826F5894426F594F)
Complete name : E:PacificRim(2013)3D-halfOU(Ash61)v.2PacificRim(2013)3D-halfOU(Ash61)v.2.mkv
Format : Matroska
Format version : Version 2
File size : 19.8 GiB
Duration : 2h 11mn
Overall bit rate : 21.5 Mbps
Movie name : Тихоокеанский рубеж / Pacific Rim (2013) 3D
Encoded date : UTC 2013-11-08 20:56:48
Writing application : mkvmerge v5.8.0 ('No Sleep / Pillow') built on Sep 2 2012 15:37:04
Writing library : libebml v1.2.3 + libmatroska v1.3.0
Video
ID : 1
Format : AVC
Format/Info : Advanced Video Codec
Format profile : High@L4.1
Format settings, CABAC : Yes
Format settings, ReFrames : 4 frames
Codec ID : V_MPEG4/ISO/AVC
Duration : 2h 11mn
Bit rate : 19.2 Mbps
Width : 1 920 pixels
Height : 1 080 pixels
Display aspect ratio : 16:9
Frame rate mode : Constant
Frame rate : 23.976 fps
Color space : YUV
Chroma subsampling : 4:2:0
Bit depth : 8 bits
Scan type : Progressive
Bits/(Pixel*Frame) : 0.386
Stream size : 17.6 GiB (89%)
Title : BDRip by Ash61 (ошибки стереографов фильма исправлены)
Writing library : x264 core 129 r2245 bc13772
Encoding settings : cabac=1 / ref=4 / deblock=1:-3:-3 / analyse=0x3:0x113 / me=umh / subme=10 / psy=1 / psy_rd=1.00:0.15 / mixed_ref=1 / me_range=32 / chroma_me=1 / trellis=2 / 8x8dct=1 / cqm=0 / deadzone=21,11 / fast_pskip=1 / chroma_qp_offset=-3 / threads=12 / lookahead_threads=2 / sliced_threads=0 / nr=0 / decimate=1 / interlaced=0 / bluray_compat=0 / constrained_intra=0 / bframes=9 / b_pyramid=2 / b_adapt=2 / b_bias=0 / direct=3 / weightb=1 / open_gop=0 / weightp=2 / keyint=250 / keyint_min=23 / scenecut=40 / intra_refresh=0 / rc_lookahead=60 / rc=crf / mbtree=1 / crf=17.0 / qcomp=0.70 / qpmin=0 / qpmax=69 / qpstep=4 / vbv_maxrate=40000 / vbv_bufsize=30000 / crf_max=0.0 / nal_hrd=none / frame-packing=4 / ip_ratio=1.40 / aq=1:0.70
Language : English
Default : Yes
Forced : No
Audio #1
ID : 2
Format : AC-3
Format/Info : Audio Coding 3
Mode extension : CM (complete main)
Format settings, Endianness : Big
Codec ID : A_AC3
Duration : 2h 11mn
Bit rate mode : Constant
Bit rate : 640 Kbps
Channel(s) : 6 channels
Channel positions : Front: L C R, Side: L R, LFE
Sampling rate : 48.0 KHz
Bit depth : 16 bits
Compression mode : Lossy
Stream size : 601 MiB (3%)
Title : Дубляж - BD CEE
Language : Russian
Default : Yes
Forced : No
Audio #2
ID : 3
Format : AC-3
Format/Info : Audio Coding 3
Mode extension : CM (complete main)
Format settings, Endianness : Big
Codec ID : A_AC3
Duration : 2h 11mn
Bit rate mode : Constant
Bit rate : 640 Kbps
Channel(s) : 6 channels
Channel positions : Front: L C R, Side: L R, LFE
Sampling rate : 48.0 KHz
Bit depth : 16 bits
Compression mode : Lossy
Stream size : 601 MiB (3%)
Title : Дубляж - BD CEE
Language : Ukrainian
Default : No
Forced : No
Audio #3
ID : 4
Format : AC-3
Format/Info : Audio Coding 3
Mode extension : CM (complete main)
Format settings, Endianness : Big
Codec ID : A_AC3
Duration : 2h 11mn
Bit rate mode : Constant
Bit rate : 640 Kbps
Channel(s) : 6 channels
Channel positions : Front: L C R, Side: L R, LFE
Sampling rate : 48.0 KHz
Bit depth : 16 bits
Compression mode : Lossy
Stream size : 601 MiB (3%)
Title : Original - BD3D
Language : English
Default : No
Forced : No
Text #1
ID : 5
Format : UTF-8
Codec ID : S_TEXT/UTF8
Codec ID/Info : UTF-8 Plain Text
Title : Форсированные - iTunes (edit by Ash61)
Language : Russian
Default : Yes
Forced : No
Text #2
ID : 6
Format : UTF-8
Codec ID : S_TEXT/UTF8
Codec ID/Info : UTF-8 Plain Text
Title : Форсированные - iTunes (edit by Ash61)
Language : Ukrainian
Default : No
Forced : No
Menu
00:00:00.000 : :1
00:09:09.132 : :2
00:18:35.823 : :3
00:23:04.341 : :4
00:33:00.395 : :5
00:42:44.896 : :6
00:50:01.665 : :7
01:01:09.666 : :8
01:14:45.106 : :9
01:22:21.311 : :10
01:32:09.941 : :11
01:41:55.609 : :12
01:51:37.858 : :13
01:59:21.029 : :14
02:02:17.830 : :15
Благодарности релизеру (10)

Торрент:

Статус:

Размер:

Зарегистрирован   [ 2013-11-10 06:20 ]

D повтор

19.76 GB