Торренты   
 
 


Росомаха: Бессмертный / The Wolverine (Джеймс Мэнголд) [2013 г., Anamorph OverUnder]

Рейтинг 3D:
180 голосов
6.5
Рейтинг фильма:
182 голосов
7.0
 
Вы должны быть авторизированы,
чтобы ставить оценки



Росомаха: Бессмертный / The Wolverine
Год выпуска: 2013
Страна: Австралия, США
Жанр: фантастика, фэнтези, боевик, приключения
Продолжительность: 02:06:08
Перевод: Профессиональный (дублированный) лицензия
Режиссер: Джеймс Мэнголд
В ролях: Хью Джекман, Тао Окамото, Рила Фукусима, Светлана Ходченкова, Уилл Юн Ли, Харукико Яманоути, Хироюки Санада, Брайан Ти, Кен Ямамура, Фамке Янссен
Описание: Новая глава приключений Росомахи развернётся в Японии, где Логану предстоит выяснить, что острее — когти Росомахи или меч Серебряного Самурая.
Качество: BDrip
Контейнер: MKV
Формат 3D: Anamorph OverUnder / Вертикальная анаморфная стереопара
Видео кодек: x264
Аудио кодек: AC-3
Видео: AVC, High@L4.1, 1920х1080, 23,976 кадра/сек, 10,5 Мбит/сек
Аудио:
#1 - Русский / AC3 / 48 KHz / 5.1 ch / 384 Кбит/сек (iTunes Russia)
#2 - Английский / AC3 / 48 KHz / 5.1 ch / 640 Кбит/сек (Original)
Субтитры:
русские форсированные на японскую речь (made by Ash61), английские (полные + форс.)

Скриншоты

Media Info

Код:
Общее
Уникальный идентификатор                 : 219491547019906208017580787172814061203 (0xA52088C78719B177B696817407537E93)
Полное имя                               : H:\Source\TheWolverine.Theatrical.3D.2013.BD3DRip.Half.OU.x264.AC3.3D-RuGroup.mkv
Формат                                   : Matroska
Версия формата                           : Version 4 / Version 2
Размер файла                             : 10,6 Гбайт
Продолжительность                        : 2 ч. 6 м.
Общий поток                              : 12,0 Мбит/сек
Название фильма                          : The Wolverine 3D (2013) release 3D-RuGroup
Дата кодирования                         : UTC 2013-11-20 16:42:24
Программа кодирования                    : mkvmerge v6.3.0 ('You can't stop me!') built on Jul 19 2013 16:27:38
Библиотека кодирования                   : libebml v1.3.0 + libmatroska v1.4.1
Видео
Идентификатор                            : 1
Формат                                   : AVC
Формат/Информация                        : Advanced Video Codec
Профиль формата                          : High@L4.1
Параметр CABAC формата                   : Да
Параметр ReFrames формата                : 4 кадра
Идентификатор кодека                     : V_MPEG4/ISO/AVC
Продолжительность                        : 2 ч. 6 м.
Битрейт                                  : 10,5 Мбит/сек
Ширина                                   : 1920 пикселей
Высота                                   : 1080 пикселей
Соотношение сторон                       : 16:9
Режим частоты кадров                     : Постоянный
Частота кадров                           : 23,976 кадра/сек
Цветовое пространство                    : YUV
Субдискретизация насыщенности            : 4:2:0
Битовая глубина                          : 8 бит
Тип развёртки                            : Прогрессивная
Бит/(Пиксели*Кадры)                      : 0.211
Размер потока                            : 9,23 Гбайт (87%)
Заголовок                                : rip by StarStranger aka itsamna
Библиотека кодирования                   : x264 core 130 r2273 b3065e6
Настройки программы                      : cabac=1 / ref=4 / deblock=1:-3:-3 / analyse=0x3:0x133 / me=umh / subme=10 / psy=1 / psy_rd=1.00:0.15 / mixed_ref=1 / me_range=32 / chroma_me=1 / trellis=2 / 8x8dct=1 / cqm=0 / deadzone=21,11 / fast_pskip=0 / chroma_qp_offset=-3 / threads=12 / lookahead_threads=2 / sliced_threads=0 / nr=0 / decimate=1 / interlaced=0 / bluray_compat=0 / constrained_intra=0 / bframes=8 / b_pyramid=2 / b_adapt=2 / b_bias=0 / direct=3 / weightb=1 / open_gop=0 / weightp=2 / keyint=250 / keyint_min=23 / scenecut=40 / intra_refresh=0 / rc_lookahead=60 / rc=crf / mbtree=1 / crf=16.0 / qcomp=0.60 / qpmin=0 / qpmax=69 / qpstep=4 / vbv_maxrate=50000 / vbv_bufsize=62500 / crf_max=0.0 / nal_hrd=none / ip_ratio=1.40 / aq=1:0.90
Default                                  : Да
Forced                                   : Нет
Аудио #1
Идентификатор                            : 2
Формат                                   : AC-3
Формат/Информация                        : Audio Coding 3
Расширение режима                        : CM (complete main)
Параметр Endianness формата              : Big
Идентификатор кодека                     : A_AC3
Продолжительность                        : 2 ч. 6 м.
Вид битрейта                             : Постоянный
Битрейт                                  : 640 Кбит/сек
Каналы                                   : 6 каналов
Расположение каналов                     : Front: L C R, Side: L R, LFE
Частота                                  : 48,0 КГц
Битовая глубина                          : 16 бит
Метод сжатия                             : С потерями
Размер потока                            : 577 Мбайт (5%)
Заголовок                                : Дубляж - BD CEE
Язык                                     : Russian
Default                                  : Да
Forced                                   : Нет
Аудио #2
Идентификатор                            : 3
Формат                                   : AC-3
Формат/Информация                        : Audio Coding 3
Расширение режима                        : CM (complete main)
Параметр Endianness формата              : Big
Идентификатор кодека                     : A_AC3
Продолжительность                        : 2 ч. 6 м.
Вид битрейта                             : Постоянный
Битрейт                                  : 640 Кбит/сек
Каналы                                   : 6 каналов
Расположение каналов                     : Front: L C R, Side: L R, LFE
Частота                                  : 48,0 КГц
Битовая глубина                          : 16 бит
Метод сжатия                             : С потерями
Размер потока                            : 577 Мбайт (5%)
Заголовок                                : Original | DD 5.1 @ 640 kbps
Язык                                     : English
Default                                  : Нет
Forced                                   : Нет
Текст #1
Идентификатор                            : 4
Формат                                   : UTF-8
Идентификатор кодека                     : S_TEXT/UTF8
Идентификатор кодека/Информация          : UTF-8 Plain Text
Заголовок                                : Форсированные (на японскую речь)
Язык                                     : Russian
Default                                  : Да
Forced                                   : Нет
Текст #2
Идентификатор                            : 5
Формат                                   : UTF-8
Идентификатор кодека                     : S_TEXT/UTF8
Идентификатор кодека/Информация          : UTF-8 Plain Text
Язык                                     : Russian
Default                                  : Нет
Forced                                   : Нет
Текст #3
Идентификатор                            : 6
Формат                                   : UTF-8
Идентификатор кодека                     : S_TEXT/UTF8
Идентификатор кодека/Информация          : UTF-8 Plain Text
Язык                                     : Ukrainian
Default                                  : Нет
Forced                                   : Нет
Текст #4
Идентификатор                            : 7
Формат                                   : UTF-8
Идентификатор кодека                     : S_TEXT/UTF8
Идентификатор кодека/Информация          : UTF-8 Plain Text
Заголовок                                : Forced
Язык                                     : English
Default                                  : Нет
Forced                                   : Нет
Текст #5
Идентификатор                            : 8
Формат                                   : UTF-8
Идентификатор кодека                     : S_TEXT/UTF8
Идентификатор кодека/Информация          : UTF-8 Plain Text
Заголовок                                : SDH
Язык                                     : English
Default                                  : Нет
Forced                                   : Нет
Меню
00:00:00.000                             : :1
00:05:03.720                             : :2
00:07:39.668                             : :3
00:08:40.437                             : :4
00:10:25.500                             : :5
00:13:56.794                             : :6
00:16:49.300                             : :7
00:19:13.069                             : :8
00:22:03.739                             : :9
00:26:38.305                             : :10
00:28:53.398                             : :11
00:30:21.403                             : :12
00:33:43.146                             : :13
00:38:08.244                             : :14
00:42:42.310                             : :15
00:44:19.073                             : :16
00:47:06.741                             : :17
00:52:38.280                             : :18
00:54:37.316                             : :19
01:00:06.478                             : :20
01:06:16.222                             : :21
01:11:36.959                             : :22
01:16:25.206                             : :23
01:19:30.808                             : :24
01:22:34.575                             : :25
01:27:33.206                             : :26
01:30:37.140                             : :27
01:33:00.033                             : :28
01:36:33.204                             : :29
01:40:14.217                             : :30
01:43:04.512                             : :31
01:46:07.570                             : :32
01:51:06.076                             : :33
01:53:01.483                             : :34
01:55:50.777                             : :35
01:57:21.451                             : :36
--Релиз группы:

Проверено на встроенном плейере ТВ LG 42LW4500
--20.11.2013 - Релиз обновлён - русская дублированная дорожка заменена на лицензию.
Желающие, скачайте заново торрент-файл.
Остальные раздачи этого фильма (3)
Благодарности релизеру (84)

Торрент:

Статус:

Размер:

Зарегистрирован   [ 2013-11-20 20:59 ]

проверено

10.57 GB