Торренты   
 
 


Росомаха: Бессмертный в 3Д / The Wolverine 3D (Джеймс Мэнголд / James Mangold) [2013, Фантастика, Фэнтези, Боевик, Приключения, BDrip, 1080p]Full OverUnder / Вертикальная стереопара

Рейтинг 3D:
180 голосов
6.5
Рейтинг фильма:
182 голосов
7.0
 
Вы должны быть авторизированы,
чтобы ставить оценки


Росомаха: Бессмертный / The Wolverine
Год выпуска: 2013
Страна: Австралия, США
Студия: 20th Century Fox Film, Marvel Entertainment
Жанр: Фантастика, Фэнтези, Боевик, Приключения
Продолжительность: 02:06:08
Перевод: Профессиональный дублированный (лицензия)
Русские субтитры: есть
Режиссер на русском: Джеймс Мэнголд
Режиссер на английском: James Mangold
В ролях: Хью Джекман, Фамке Янссен, Брайан Ти, Уилл Юн Ли, Светлана Ходченкова, Хироюки Санада, Рила Фукусима, Джеймс Фрайзер, Тао Окамото, Люк Уэбб, Харукико Яманоути
Описание: Новая глава приключений Росомахи развернётся в Японии, где Логану предстоит выяснить, что острее — когти Росомахи или меч Серебряного Самурая.
Сэмпл:http://www.sendspace.com/file/yssz1a
Качество: BDrip
Контейнер: MKV
Формат 3D: OverUnder / Вертикальная стереопара
Порядок ракурсов: правый ракурс первый
Видео кодек: x264
Аудио кодек: AC3
Видео: AVC / High@L5.0 / 23,976 fps / 1920х1600 / 17,4 Мбит/сек
Аудио: Русский / DTS / 48 KHz / 5.1 ch / 755 Кбит/сек
Аудио 2: Английский / AC3 / 48 KHz / 5.1 ch / 640 Kbps
Субтитры:Внешние (UTF-8) Русские Форсированные на японскую речь(made by Ash61)
Релиз группы: ВНИМАНИЕ ! На встроенных ТВ-плеерах работать не будет!!!
Железные плееры на которых воспроизводятся полные стереопары:Popcorn C-200 , Dune HD Smart D1 , Dune HD DUO , Dune HD Smart H1 , Dune HD Smart B1 , Dune HD Max , Dune HD TV-303D , Dune HD Base 3D , Dune HD TV-301

21.11.2013. Релиз обновлён - русская дорога заменена на лицензию. Желающие, скачайте заново торрент-файл.

MediaInfo

Общее
Уникальный идентификатор : 241815016106951177944357276279320467944 (0xB5EBE0C808DC2101BCA8FAAD67F1D9E8)
Полное имя : F:\видео\The Wolverine.Rip by SeRoGa00\The Wolverine.Rip by SeRoGa00.mkv
Формат : Matroska
Версия формата : Version 2
Размер файла : 16,9 Гбайт
Продолжительность : 2 ч. 6 м.
Общий поток : 19,2 Мбит/сек
Дата кодирования : UTC 2013-11-21 08:11:34
Программа кодирования : mkvmerge v3.4.0 ('Rapunzel') сборка от May 15 2010 09:38:20
Библиотека кодирования : libebml v0.8.0 + libmatroska v0.9.0
Видео
Идентификатор : 1
Формат : AVC
Формат/Информация : Advanced Video Codec
Профиль формата : High@L5.0
Параметр CABAC формата : Да
Параметр ReFrames формата : 4 кадра
Идентификатор кодека : V_MPEG4/ISO/AVC
Продолжительность : 2 ч. 6 м.
Битрейт : 17,4 Мбит/сек
Ширина : 1920 пикселей
Высота : 1600 пикселей
Соотношение сторон : 1,200
Частота кадров : 23,976 кадра/сек
Цветовое пространство : YUV
Субдискретизация насыщенности : 4:2:0
Битовая глубина : 8 бит
Тип развёртки : Прогрессивная
Бит/(Пиксели*Кадры) : 0.236
Размер потока : 15,3 Гбайт (91%)
Заголовок : Rip by SeRoGa00
Библиотека кодирования : x264 core 138 r2356 a1d3d17
Настройки программы : cabac=1 / ref=4 / deblock=1:-3:-3 / analyse=0x3:0x113 / me=umh / subme=9 / psy=1 / psy_rd=1.00:0.15 / mixed_ref=1 / me_range=24 / chroma_me=1 / trellis=2 / 8x8dct=1 / cqm=0 / deadzone=21,11 / fast_pskip=1 / chroma_qp_offset=-3 / threads=9 / lookahead_threads=1 / sliced_threads=0 / nr=0 / decimate=1 / interlaced=0 / bluray_compat=0 / constrained_intra=0 / bframes=8 / b_pyramid=2 / b_adapt=2 / b_bias=0 / direct=3 / weightb=1 / open_gop=0 / weightp=2 / keyint=250 / keyint_min=23 / scenecut=40 / intra_refresh=0 / rc_lookahead=60 / rc=crf / mbtree=1 / crf=18.0 / qcomp=0.60 / qpmin=10 / qpmax=69 / qpstep=4 / vbv_maxrate=40000 / vbv_bufsize=40000 / crf_max=0.0 / nal_hrd=none / ip_ratio=1.40 / aq=1:1.00
Язык : English
Аудио #1
Идентификатор : 2
Формат : DTS
Формат/Информация : Digital Theater Systems
Идентификатор кодека : A_DTS
Продолжительность : 2 ч. 6 м.
Вид битрейта : Постоянный
Битрейт : 755 Кбит/сек
Каналы : 6 каналов
Расположение каналов : Front: L C R, Side: L R, LFE
Частота : 48,0 КГц
Битовая глубина : 24 бит
Метод сжатия : С потерями
Размер потока : 681 Мбайт (4%)
Язык : Russian
Аудио #2
Идентификатор : 3
Формат : AC-3
Формат/Информация : Audio Coding 3
Расширение режима : CM (complete main)
Идентификатор кодека : A_AC3
Продолжительность : 2 ч. 6 м.
Вид битрейта : Постоянный
Битрейт : 640 Кбит/сек
Каналы : 6 каналов
Расположение каналов : Front: L C R, Side: L R, LFE
Частота : 48,0 КГц
Битовая глубина : 16 бит
Метод сжатия : С потерями
Размер потока : 577 Мбайт (3%)
Язык : English

Скриншоты


Остальные раздачи этого фильма (3)
Благодарности релизеру (10)

Торрент:

Статус:

Размер:

Зарегистрирован   [ 2013-11-22 11:47 ]

проверено

16.91 GB

 
 Мнение о фильме (49)

1, 2, 3  След.






Все как всегда в фильмах по комиксам ( исключения редки ) - красивая картинка и спецэффекты не перекрывают идиотизма мотивации поступков героев. Нет сопереживания, а следовательно, интерес пропадает уже к финалу, тем более что он абсолютно предсказуем.
Фильм по праву займет свое заслуженное место рядом с "Тихоокеанским рубежом", к тому же и действие происходит по-соседству. Но японцам, наверное, понравится.
P.S. 3D терпимое, а вот отсутствие перевода на существенную часть разговоров японских товарищей :) - нет.
 

3D вообще никакой... Никакого эффекта. Просто фильм в хорошем качестве и все.
 

3д ни о чем, фильм разок посмотреть можно.
 

Хочу сказать, что ожидал от фильма меньшего.. Оказалось всё на приличном уровне- и 3D и сюжет. Посмотреть 1 раз рекомендую, особенно с детьми подросткового возраста..
 

как и предыдущие рассомахи фильмец оставляет желать лучшего, с учетом, что половина фильма вообще без перевода.
 

Фильм понравился!
 

Нормальное 3D, мне понравилось. Фильм тоже норм.
 

Хью Джекман - душка, так бы и смотрела на него! обожаю эту линию фильмов с его участием:)))
 

Классное 3D, спасибо!
 

3D нет фильм неплохой
 

Фильм на разок! В середине стало скучно, но до конца досмотрел=) Качество 3D мягко сказать низкое.
 

3D никакое, фильм средний, первая часть намного интересней была
 

3D хорошее, глубина, объем есть, не знаю кому че не понравилось. Фильм тоже неплох.
После титров ещё отвязка к следующей серии Людей Икс.
 

3D не очень,сюжет немного затянут(можно было сократить минут 20) спецэфекты ,пожалуй, только на поезде прикололи.для любителей жанра
 

А расширенная версия в 3D есть?
 

фильм затянут. качество отменное. спасибо
 

О!Гранд мерси!!!
С удовольствием пересмотрю еще раз!
Фильм понравился-Джекман великолепен!
 

Не зря ждал.Качество 3D просто отличное, и фильм тоже понравился.Не знаю, видно кому как.но раздача получилась полноценная.Спасибо.
 

no bad !
 

Хороший нормальный фильмец-НЕ для скептиков.Смотрим-Отдыхаем.Спасибо.
 

Страница 1 из 3

1, 2, 3  След.