Торренты   
 
 

 

Тихоокеанский рубеж / Pacific Rim (Гильермо дель Торо) [2013, Anamorph OverUnder]

Рейтинг 3D:
204 голосов
8.1
Рейтинг фильма:
201 голосов
7.3
 
Вы должны быть авторизированы,
чтобы ставить оценки



Тихоокеанский рубеж
Год выпуска: 2013
Страна: США (Warner Bros. Pictures, Legendary Pictures)
Жанр: Фантастика, фэнтези, боевик, приключения
Продолжительность: 02:11:17
Перевод: Профессиональный (дублированный) Лицензия
Режиссер: Гильермо дель Торо
В ролях: Чарли Ханнэм, Идрис Эльба, Ринко Кикути, Роберт Казински, Макс Мартини, Чарли Дэй, Берн Горман, Клифтон Коллинз мл., Рон Перлман, Диего Клаттенхофф, Василий Дахненко, Алексей Рязанцев, Вероника Саркисова, Илья Исаев, Владимир Зайцев
Описание: Когда из морских глубин поднялись легионы чудовищ, известных как Кайдзу, началась война, которой суждено было забрать миллионы жизней и свести «человеческие ресурсы» почти к нулю всего за несколько лет. Чтобы сражаться с пришельцами, было создано специальное оружие: огромные роботы, названные Джегерами, они управлялись одновременно двумя пилотами, чьи сознания соединены с помощью нейронной связи. Но даже Джегеры оказываются почти бессильны перед лицом безжалостных Кайдзу. На грани поражения у защитников человечества нет выбора, кроме как обратиться к двум весьма сомнительным героям - никому не нужному бывшему пилоту и неопытному стажеру - которые объединились, чтобы повести в бой некогда легендарного, но сейчас устаревшего Джегера. Вместе они оказываются единственной надеждой человечества, последним препятствием перед надвигающимся апокалипсисом.
Качество: BDrip
Контейнер: MKV
Формат 3D: Anamorph OverUnder / Вертикальная анаморфная стереопара
Видео кодек: x264
Аудио кодек: AC-3
Видео: AVC, High@L4.1, 1920х1080, 23,976 кадра/сек, 14,9 Мбит/сек
Аудио:
#1 - Русский / AC3 / 48 KHz / 5.1 ch / 640 Кбит/сек (Дубляж, Blu-ray CEE)
#2 - Украинский / AC3 / 48 KHz / 5.1 ch / 640 Кбит/сек (Дубляж, Blu-ray CEE)
#3 - Английский / AC3 / 48 KHz / 5.1 ch / 640 Кбит/сек (Original)
Субтитры: Russian (Forced, iTunes), Russian (iTunes), Ukrainian (Forced, iTunes), Ukrainian (iTunes), English, English (SDH), English (SDH-COLORED)

Скриншоты

Media Info

Общее
Уникальный идентификатор : 217445576332331344073759341791575625678 (0xA3967EA2E8C3FA62A7B4FEB2037D4FCE)
Полное имя : PacificRim.3D.2013.BD3DRip.Half.OU.x264.AC3.3D-RuGroup.mkv
Формат : Matroska
Версия формата : Version 4 / Version 2
Размер файла : 15,9 Гбайт
Продолжительность : 2 ч. 11 м.
Общий поток : 17,3 Мбит/сек
Название фильма : Pacific Rim 3D (2013) release 3D-RuGroup
Дата кодирования : UTC 2013-11-08 20:39:57
Программа кодирования : mkvmerge v6.3.0 ('You can't stop me!') built on Jul 19 2013 16:27:38
Библиотека кодирования : libebml v1.3.0 + libmatroska v1.4.1
Видео
Идентификатор : 1
Формат : AVC
Формат/Информация : Advanced Video Codec
Профиль формата : High@L4.1
Параметр CABAC формата : Да
Параметр ReFrames формата : 4 кадра
Идентификатор кодека : V_MPEG4/ISO/AVC
Продолжительность : 2 ч. 11 м.
Битрейт : 14,9 Мбит/сек
Ширина : 1920 пикселей
Высота : 1080 пикселей
Соотношение сторон : 16:9
Режим частоты кадров : Постоянный
Частота кадров : 23,976 кадра/сек
Цветовое пространство : YUV
Субдискретизация насыщенности : 4:2:0
Битовая глубина : 8 бит
Тип развёртки : Прогрессивная
Бит/(Пиксели*Кадры) : 0.299
Размер потока : 13,6 Гбайт (86%)
Заголовок : rip by itsamna
Библиотека кодирования : x264 core 130 r2273 b3065e6
Настройки программы : cabac=1 / ref=4 / deblock=1:-3:-3 / analyse=0x3:0x133 / me=umh / subme=10 / psy=1 / psy_rd=1.05:0.10 / mixed_ref=1 / me_range=32 / chroma_me=1 / trellis=2 / 8x8dct=1 / cqm=0 / deadzone=21,11 / fast_pskip=0 / chroma_qp_offset=-3 / threads=12 / lookahead_threads=2 / sliced_threads=0 / nr=0 / decimate=1 / interlaced=0 / bluray_compat=0 / constrained_intra=0 / bframes=8 / b_pyramid=2 / b_adapt=2 / b_bias=0 / direct=3 / weightb=1 / open_gop=0 / weightp=2 / keyint=250 / keyint_min=23 / scenecut=40 / intra_refresh=0 / rc_lookahead=60 / rc=crf / mbtree=1 / crf=18.0 / qcomp=0.60 / qpmin=0 / qpmax=69 / qpstep=4 / vbv_maxrate=50000 / vbv_bufsize=62500 / crf_max=0.0 / nal_hrd=none / ip_ratio=1.40 / aq=1:0.90
Default : Да
Forced : Нет
Аудио #1
Идентификатор : 2
Формат : AC-3
Формат/Информация : Audio Coding 3
Расширение режима : CM (complete main)
Параметр Endianness формата : Big
Идентификатор кодека : A_AC3
Продолжительность : 2 ч. 11 м.
Вид битрейта : Постоянный
Битрейт : 640 Кбит/сек
Каналы : 6 каналов
Расположение каналов : Front: L C R, Side: L R, LFE
Частота : 48,0 КГц
Битовая глубина : 16 бит
Метод сжатия : С потерями
Размер потока : 601 Мбайт (4%)
Заголовок : AC3 5.1 @ 640 kbps - DUB, Blu-ray CEE
Язык : Russian
Default : Да
Forced : Нет
Аудио #2
Идентификатор : 3
Формат : AC-3
Формат/Информация : Audio Coding 3
Расширение режима : CM (complete main)
Параметр Endianness формата : Big
Идентификатор кодека : A_AC3
Продолжительность : 2 ч. 11 м.
Вид битрейта : Постоянный
Битрейт : 640 Кбит/сек
Каналы : 6 каналов
Расположение каналов : Front: L C R, Side: L R, LFE
Частота : 48,0 КГц
Битовая глубина : 16 бит
Метод сжатия : С потерями
Размер потока : 601 Мбайт (4%)
Заголовок : AC3 5.1 @ 640 kbps - DUB, Blu-ray CEE
Язык : Ukrainian
Default : Нет
Forced : Нет
Аудио #3
Идентификатор : 4
Формат : AC-3
Формат/Информация : Audio Coding 3
Расширение режима : CM (complete main)
Параметр Endianness формата : Big
Идентификатор кодека : A_AC3
Продолжительность : 2 ч. 11 м.
Вид битрейта : Постоянный
Битрейт : 640 Кбит/сек
Каналы : 6 каналов
Расположение каналов : Front: L C R, Side: L R, LFE
Частота : 48,0 КГц
Битовая глубина : 16 бит
Метод сжатия : С потерями
Размер потока : 601 Мбайт (4%)
Заголовок : Original
Язык : English
Default : Нет
Forced : Нет
Аудио #4
Идентификатор : 5
Формат : AC-3
Формат/Информация : Audio Coding 3
Профиль формата : Dolby Digital
Расширение режима : CM (complete main)
Параметр Endianness формата : Big
Идентификатор кодека : A_AC3
Продолжительность : 2 ч. 11 м.
Вид битрейта : Постоянный
Битрейт : 192 Кбит/сек
Каналы : 2 канала
Расположение каналов : Front: L R
Частота : 48,0 КГц
Битовая глубина : 16 бит
Метод сжатия : С потерями
Размер потока : 180 Мбайт (1%)
Заголовок : AC3 2.0 @ 192 kbps - Commentary By Guillermo Del Toro
Язык : English
Default : Нет
Forced : Нет
Текст #1
Идентификатор : 6
Формат : UTF-8
Идентификатор кодека : S_TEXT/UTF8
Идентификатор кодека/Информация : UTF-8 Plain Text
Заголовок : Forced, iTunes
Язык : Russian
Default : Да
Forced : Нет
Текст #2
Идентификатор : 7
Формат : UTF-8
Идентификатор кодека : S_TEXT/UTF8
Идентификатор кодека/Информация : UTF-8 Plain Text
Заголовок : iTunes
Язык : Russian
Default : Нет
Forced : Нет
Текст #3
Идентификатор : 8
Формат : UTF-8
Идентификатор кодека : S_TEXT/UTF8
Идентификатор кодека/Информация : UTF-8 Plain Text
Заголовок : Forced, iTunes
Язык : Ukrainian
Default : Нет
Forced : Нет
Текст #4
Идентификатор : 9
Формат : UTF-8
Идентификатор кодека : S_TEXT/UTF8
Идентификатор кодека/Информация : UTF-8 Plain Text
Заголовок : iTunes
Язык : Ukrainian
Default : Нет
Forced : Нет
Текст #5
Идентификатор : 10
Формат : UTF-8
Идентификатор кодека : S_TEXT/UTF8
Идентификатор кодека/Информация : UTF-8 Plain Text
Язык : English
Default : Нет
Forced : Нет
Текст #6
Идентификатор : 11
Формат : UTF-8
Идентификатор кодека : S_TEXT/UTF8
Идентификатор кодека/Информация : UTF-8 Plain Text
Заголовок : SDH
Язык : English
Default : Нет
Forced : Нет
Текст #7
Идентификатор : 12
Формат : UTF-8
Идентификатор кодека : S_TEXT/UTF8
Идентификатор кодека/Информация : UTF-8 Plain Text
Заголовок : SDH-COLORED
Язык : English
Default : Нет
Forced : Нет
Меню
00:00:00.000 : :01
00:09:09.132 : :02
00:18:35.823 : :03
00:23:04.341 : :04
00:33:00.395 : :05
00:42:44.896 : :06
00:50:01.665 : :07
01:01:09.666 : :08
01:14:45.106 : :09
01:22:21.311 : :10
01:32:09.941 : :11
01:41:55.609 : :12
01:51:37.858 : :13
01:59:21.029 : :14
02:02:17.830 : :15
--Релиз группы:

Проверено на встроенном плейере ТВ LG 42LW4500
--
Остальные раздачи этого фильма (4)
Благодарности релизеру (89)

Торрент:

Статус:

Размер:

Зарегистрирован   [ 2013-11-12 19:12 ]

проверено

15.89 GB

 
 Мнение о фильме (74)

1, 2, 3, 4  След.






Тут пару пользователей на другом трекере писали по поводу фильма:
...с фильмом проблема, около 11 мин 30 сек вдруг что то не так с 3Д. Меня с подругой одновременно заташнило. Как будто кадры не в правильном порядке попадают в глаза...
Кстати, да: у меня то же самое.
Проанализировал...
Одну ошибку стереографов фильма я заметил ещё при создании анимированных скринов - смещение ракурсов по вертикали от начала фильма до ~20...24 минуты, но она была не особо напрягающая зрение (хотя всё же напрягающая, теоретически).
А вот в промежутке с ~11-ти минут по 13 ... мин - оказалась вообще недопустимая ошибка стереографов - ракурсы по-разному масштабированы:

Анимированные скрины


После этого времени весь фильм идёт отлично выровнен и по вертикали, и по масштабу...
Разумеется, это не в претензию serega768! :)
 

ash61, Жуть, 24+2, 26 минут напряга зрению.
 

Да нет, Dag13, где-то 20-24 минуты. И то несильного напряга (возможно даже и незаметного). А сильного напряга где-то 2,5 минуты. К тому же, этот сильный напряг испытают только особо чувствительные люди... :)
Скажем, на Музее восковых фигур тоже было неправильное вертикальное кадрирование, но я его совершенно не заметил при просмотре фильма полностью (заметил только по скринам анимации). И на Амитивилле-3 тоже было неправильное вертикальное кадрирование (правда я его не смотрел полностью).
 

ash61, Т.е. это проблема BluRay3D или при перекодировании, если при перекодировании лучше тогда BD3d скачать, а то так ждал этот фильм.
 

Т.е. это проблема BluRay3D
Да, при рипмейке "география" пикселей не изменяется. Таков исходник.
 

S@SH@, да, так сделали создатели фильма.
 

Отличный фильм советую всем)
 

Dag13, ash61, а когда он в кинотеатрах шел эти проблемы были или нет?
 

S@SH@, Надо спросить тех, кто смотрел. Хотя скорей всего нет.
 

Я не знаю, была ли упомянутая проблема в кинотеатрах. Но, в отличии от Dag13, почти уверен, что там было то же самое - кто же будет перемонтировать фильм специально для БД...
 

3D просто супер
Я бы даже сказал лучшее что приходилось видеть, 3D Аватара, Гэдсби и Мстителей позади.
 

Фильм просто "какашка". Если б не 3д то был бы полное Г....
 

Классный, красивый фильм, давно таких не было. Смотрели с удовольствием. Что бы фильм понравился нужен большой экран и отличный звук. А не на сотовом его смотреть!
P.S не плохобы без полос рип :)
 

хлопци прывит!скажу одразу фильм бомба!режесер заклав дуже важкий смысл.глыбока постанова,жанр дуже закрученый и непредсказуем!до конця не знав хто же женился на марии та вбыл алихандро!уууу аж мурашки по коже!смотрел аж 4 раза подряд,бо не знав де кнопа стоп-(довбаный самвсуньг).кино якесь размыте нема резкости ще два экрана я смотрел один а второй я тоже смотрел один.прыйшлы сусиды и кажуть шо треба окуляры!я у шоци клава!короче пишов я у оптику кажуть +1 беры!
 

хлопци прывит!скажу одразу фильм бомба!режесер заклав дуже важкий смысл.глыбока постанова,жанр дуже закрученый и непредсказуем!до конця не знав хто же женился на марии та вбыл алихандро!уууу аж мурашки по коже!смотрел аж 4 раза подряд,бо не знав де кнопа стоп-(довбаный самвсуньг).кино якесь размыте нема резкости ще два экрана я смотрел один а второй я тоже смотрел один.прыйшлы сусиды и кажуть шо треба окуляры!я у шоци клава!короче пишов я у оптику кажуть +1 беры!
Дая печаль (((. Автор троль лесной.
 

На вкус и цвет фломастеры разные, так что качать в любом случае!!! По многочисленным отзывам думал что фильм параша смотреть только ради 3Д...а вот сюжет есть и значительно интереснее чем в тех же трансформерах или годзиле, 3Д не могу сказать что плохое, но ожидал значительно большего...звук однозначно не катит (нужен дубляж).
 

Смотреть можно
 

спасибо
 

О! Вот -наконец то!
Терпеливо ждал - не смотрел - спасибо!!!!!!!!!!!!
Хороший звук - это практически полдела на отлично!
 

Отличный фильм, смесь трансформеров с годзиллами. Смотреть только на большом экране, на полную громкость и в 3D.
 

Страница 1 из 4

1, 2, 3, 4  След.