Торренты   
 
 


Rexi [2009 г., анимация, SideBySide]

Рейтинг 3D:
Пока никто не голосовал
Рейтинг фильма:
Пока никто не голосовал
 
Вы должны быть авторизированы,
чтобы ставить оценки


Rexi
Год выпуска: 2009
Страна: Венгрия
Жанр: анимация
Продолжительность: 7:56
Описание: Новорожденный динозавр отправился на поиски приключений.
http://www.youtube.com/watch?v=uKujOudUk0w&feature=player_embedded
http://www.greenzero.hu/showroom.html
Формат 3d: SideBySide
Порядок ракурсов: Перекрестная пара
Видео: AVC 1920x720 25.000 fps 3288 Kbps

Скриншоты


MediaInfo

Format : MPEG-4
Format profile : Base Media / Version 2
Codec ID : mp42
File size : 194 MiB
Duration : 7mn 56s
Overall bit rate : 3 416 Kbps
Encoded date : UTC 2010-01-06 21:56:48
Tagged date : UTC 2010-01-06 21:56:48
gsst : 0
gstd : 476821
gssd : BC2B6E843HH
Video
ID : 2
Format : AVC
Format/Info : Advanced Video Codec
Format profile : High@L4.0
Format settings, CABAC : Yes
Format settings, ReFrames : 3 frames
Codec ID : avc1
Codec ID/Info : Advanced Video Coding
Duration : 7mn 56s
Bit rate mode : Variable
Bit rate : 3 288 Kbps
Maximum bit rate : 12.2 Mbps
Width : 1 920 pixels
Height : 720 pixels
Display aspect ratio : 2.667
Frame rate mode : Constant
Frame rate : 25.000 fps
Resolution : 24 bits
Colorimetry : 4:2:0
Scan type : Progressive
Bits/(Pixel*Frame) : 0.095
Stream size : 187 MiB (96%)
Title : (C) 2007 Google Inc. v08.13.2007.
Encoded date : UTC 2010-01-06 21:56:48
Tagged date : UTC 2010-01-06 21:56:54
Audio
ID : 1
Format : AAC
Format/Info : Advanced Audio Codec
Format version : Version 4
Format profile : LC
Format settings, SBR : No
Codec ID : 40
Duration : 7mn 56s
Bit rate mode : Variable
Bit rate : 126 Kbps
Maximum bit rate : 191 Kbps
Channel(s) : 2 channels
Channel positions : L R
Sampling rate : 44.1 KHz
Resolution : 16 bits
Stream size : 7.13 MiB (4%)
Title : (C) 2007 Google Inc. v08.13.2007.
Encoded date : UTC 2010-01-06 21:56:48
Tagged date : UTC 2010-01-06 21:56:54
Благодарности релизеру (0)

Торрент:

Статус:

Размер:

Зарегистрирован   [ 2010-08-26 05:38 ]

проверено

194 MB