Торренты   
 
 

 

Смурфики 2 / The Smurfs 2 (Раджа Госнелл) [2013 г., Anamorph OverUnder]

Рейтинг 3D:
79 голосов
8.3
Рейтинг фильма:
76 голосов
8.1
 
Вы должны быть авторизированы,
чтобы ставить оценки


Смурфики 2 / The Smurfs 2 Год выпуска: 2013
Страна: США (Columbia Pictures, Sony Pictures Animation, Kerner Entertainment Company)
Жанр: мультфильм, фэнтези, комедия, семейный
Продолжительность: 01:44:54
Перевод: Профессиональный (полное дублирование)
Режиссер: Раджа Госнелл
В ролях: Хэнк Азария, Нил Патрик Харрис, Брендан Глисон, Джейма Мейс, Джонатан Уинтерс, Кэти Перри, Кристина Риччи, Дж.Б. Смув, Джордж Лопес, Антон Ельчин
Описание: Гаргамел создаёт Хакуса и Векси, как две капли воды похожую на смурфиков злобную парочку, надеясь всё-таки обрести магическую силу. Когда он узнаёт, что лишь настоящий смурф может дать ему то, что он хочет, и лишь Смурфетта способна превратить Хакуса и Векси в настоящих смурфов, Гаргамел похищает Смурфетту и берёт её с собой в Париж, планируя сделать её своей прислужницей. Но смурфики — Папа, Растяпа, Смельчак, Ворчун, Красавчик, Благоразумник — и их друзья из Нью-Йорка этого так не оставят. Тем более что к ним присоединился новорождённый Голубчик.
Качество: BDrip
Контейнер: MKV
Формат 3D: Anamorph OverUnder / Вертикальная анаморфная стереопара
Видео кодек: x264
Аудио кодек: AC-3
Видео: AVC, High@L4.1, 1920х1080, 23,976 кадра/сек, 8520 Кбит/сек
Аудио:
#1 - Русский / AC3 / 48 KHz / 5.1 ch / 640 Кбит/сек (Дубляж, Blu-ray CEE)
#2 - Украинский / AC3 / 48 KHz / 5.1 ch / 640 Кбит/сек (Дубляж, Blu-ray CEE)
#3 - Английский / AC3 / 48 KHz / 5.1 ch / 640 Кбит/сек (Original)
Субтитры: русские, английские (полные)

Скриншоты

Media Info

Код:
Общее
Уникальный идентификатор                 : 209815199866906626114946414048862749260 (0x9DD8F007F02BC0F0A0C4516D70AF424C)
Полное имя                               : H:\TheSmurfs.2.3D.2013.BD3DRip.Half.OU.x264.AC3.3D-RuGroup.mkv
Формат                                   : Matroska
Версия формата                           : Version 4 / Version 2
Размер файла                             : 7,81 Гбайт
Продолжительность                        : 1 ч. 44 м.
Общий поток                              : 10,7 Мбит/сек
Название фильма                          : The Smurfs 2 3D (2013) release 3D-RuGroup
Дата кодирования                         : UTC 2013-11-16 15:39:36
Программа кодирования                    : mkvmerge v6.3.0 ('You can't stop me!') built on Jul 19 2013 16:27:38
Библиотека кодирования                   : libebml v1.3.0 + libmatroska v1.4.1
Видео
Идентификатор                            : 1
Формат                                   : AVC
Формат/Информация                        : Advanced Video Codec
Профиль формата                          : High@L4.1
Параметр CABAC формата                   : Да
Параметр ReFrames формата                : 4 кадра
Идентификатор кодека                     : V_MPEG4/ISO/AVC
Продолжительность                        : 1 ч. 44 м.
Битрейт                                  : 8520 Кбит/сек
Ширина                                   : 1920 пикселей
Высота                                   : 1080 пикселей
Соотношение сторон                       : 16:9
Режим частоты кадров                     : Постоянный
Частота кадров                           : 23,976 кадра/сек
Цветовое пространство                    : YUV
Субдискретизация насыщенности            : 4:2:0
Битовая глубина                          : 8 бит
Тип развёртки                            : Прогрессивная
Бит/(Пиксели*Кадры)                      : 0.171
Размер потока                            : 6,24 Гбайт (80%)
Библиотека кодирования                   : x264 core 130 r2273 b3065e6
Настройки программы                      : cabac=1 / ref=4 / deblock=1:-3:-3 / analyse=0x3:0x133 / me=umh / subme=10 / psy=1 / psy_rd=1.00:0.15 / mixed_ref=1 / me_range=32 / chroma_me=1 / trellis=2 / 8x8dct=1 / cqm=0 / deadzone=21,11 / fast_pskip=0 / chroma_qp_offset=-3 / threads=12 / lookahead_threads=2 / sliced_threads=0 / nr=0 / decimate=1 / interlaced=0 / bluray_compat=0 / constrained_intra=0 / bframes=8 / b_pyramid=2 / b_adapt=2 / b_bias=0 / direct=3 / weightb=1 / open_gop=0 / weightp=2 / keyint=250 / keyint_min=23 / scenecut=40 / intra_refresh=0 / rc_lookahead=60 / rc=crf / mbtree=1 / crf=18.0 / qcomp=0.60 / qpmin=0 / qpmax=69 / qpstep=4 / vbv_maxrate=50000 / vbv_bufsize=62500 / crf_max=0.0 / nal_hrd=none / ip_ratio=1.40 / aq=1:0.90
Default                                  : Да
Forced                                   : Нет
Аудио #1
Идентификатор                            : 2
Формат                                   : AC-3
Формат/Информация                        : Audio Coding 3
Расширение режима                        : CM (complete main)
Параметр Endianness формата              : Big
Идентификатор кодека                     : A_AC3
Продолжительность                        : 1 ч. 44 м.
Вид битрейта                             : Постоянный
Битрейт                                  : 640 Кбит/сек
Каналы                                   : 6 каналов
Расположение каналов                     : Front: L C R, Side: L R, LFE
Частота                                  : 48,0 КГц
Битовая глубина                          : 16 бит
Метод сжатия                             : С потерями
Размер потока                            : 480 Мбайт (6%)
Заголовок                                : Дубляж - BD CEE
Язык                                     : Russian
Default                                  : Да
Forced                                   : Нет
Аудио #2
Идентификатор                            : 3
Формат                                   : AC-3
Формат/Информация                        : Audio Coding 3
Расширение режима                        : CM (complete main)
Параметр Endianness формата              : Big
Идентификатор кодека                     : A_AC3
Продолжительность                        : 1 ч. 44 м.
Вид битрейта                             : Постоянный
Битрейт                                  : 640 Кбит/сек
Каналы                                   : 6 каналов
Расположение каналов                     : Front: L C R, Side: L R, LFE
Частота                                  : 48,0 КГц
Битовая глубина                          : 16 бит
Метод сжатия                             : С потерями
Размер потока                            : 480 Мбайт (6%)
Заголовок                                : Дубляж - BD CEE
Язык                                     : Ukrainian
Default                                  : Нет
Forced                                   : Нет
Аудио #3
Идентификатор                            : 4
Формат                                   : AC-3
Формат/Информация                        : Audio Coding 3
Расширение режима                        : CM (complete main)
Параметр Endianness формата              : Big
Идентификатор кодека                     : A_AC3
Продолжительность                        : 1 ч. 44 м.
Вид битрейта                             : Постоянный
Битрейт                                  : 640 Кбит/сек
Каналы                                   : 6 каналов
Расположение каналов                     : Front: L C R, Side: L R, LFE
Частота                                  : 48,0 КГц
Битовая глубина                          : 16 бит
Метод сжатия                             : С потерями
Размер потока                            : 480 Мбайт (6%)
Заголовок                                : Original - BD 3D
Язык                                     : English
Default                                  : Нет
Forced                                   : Нет
Текст #1
Идентификатор                            : 5
Формат                                   : UTF-8
Идентификатор кодека                     : S_TEXT/UTF8
Идентификатор кодека/Информация          : UTF-8 Plain Text
Язык                                     : Russian
Default                                  : Нет
Forced                                   : Нет
Текст #2
Идентификатор                            : 6
Формат                                   : UTF-8
Идентификатор кодека                     : S_TEXT/UTF8
Идентификатор кодека/Информация          : UTF-8 Plain Text
Язык                                     : English
Default                                  : Нет
Forced                                   : Нет
Меню
00:00:00.000                             : :1
00:05:00.133                             : :2
00:11:12.755                             : :3
00:18:14.092                             : :4
00:23:18.522                             : :5
00:27:54.589                             : :6
00:34:25.480                             : :7
00:41:09.341                             : :8
00:46:10.434                             : :9
00:50:59.097                             : :10
00:56:47.862                             : :11
01:02:33.875                             : :12
01:07:06.772                             : :13
01:14:10.195                             : :14
01:21:05.819                             : :15
01:28:24.590                             : :16
--Релиз группы:

Проверено на встроенном плейере ТВ LG 42LW4500
--
Остальные раздачи этого фильма (2)
Благодарности релизеру (72)

Торрент:

Статус:

Размер:

Зарегистрирован   [ 2013-11-16 19:53 ]

проверено

7.81 GB

 
 Мнение о фильме (21)

1, 2  След.






Смотрели всей семьей в кинотеатре, добрый фильм младшенькому 4 так он вообще был в восторге. стоит такой фильм держать в детской видеотеке.
 

осмурфительное кино :)
 

отличное кино смотрим всем городом ,как вам моя оценка ,довольны ?
 

Приятно было смотреть, все довольны.
 

прикольное и доброе кино. Класс!
 

Такой же хороший и добрый фильм, как и первый. Идеален для семейного просмотра (что я и сделал :).
 

фильм хороший только кот какойто дерганный
 
АНДРЕЙЗ0Л0Т0К Профиль 30-Ноя-2013 09:53

Отличное качество 3D, ребенок в восторге, сюжет в первой части поинтереснее (ИМХО), релизеру огроменное спасибо за труд.
 

Отличное качество 3D, ребенок доволен
 

Спасибо! хороший мультик!
 

3D очень реалистичное. Даже жене понравилось, а она обычно равнодушна к 3D:)
 

TV Samsung D7000 подхватил с внешнего диска. 3D шикарное .
 

Спасибо! мультик клёвый!
 

Спасибо, фильм отличный. С удовольствием посмотрели всей семьей. 3D тоже на уровне. Так что фильм уходит в домашнюю коллекцию.
 

Спасибо, фильм отличный доброе кино. Класс!
 

Добрый детский фильм. Спасибо!!
 

Очень хороший и добрый мультик
 

Замечательно семейное кино!
Отличная добрая сказка, с красивым добрым сюжетом и великолепным видео.
 

Отличное качество 3D, ребенок в восторге
 

спасибо! красивый, интересный мультик.
 

Страница 1 из 2

1, 2  След.