Торренты   
 
 

 

Наша Вселенная 3D / Our Universe 3D (Калле Макс Хофманн) [2013 г., Anamorph OverUnder]

Рейтинг 3D:
71 голосов
8.1
Рейтинг фильма:
70 голосов
8.0
 
Вы должны быть авторизированы,
чтобы ставить оценки


Наша Вселенная 3D / Our Universe 3D
Год выпуска: 2013
Страна: США, Германия (Universal Pictures, Los Banditos Films, Mango Film)
Жанр: Документальный
Продолжительность: 00:51:33
Перевод: Профессиональный (полное дублирование)
Режиссер: Калле Макс Хофманн
Описание: Звездное небо было объектом внимания людей с доисторических времен. И неудивительно, ведь именно в глубинах вселенной зародилась жизнь. В наши дни, благодаря современным технологиям, самые невероятные и удивительные секреты вселенной стали доступны для понимания. Космические корабли и роботизированные зонды исследуют, сканируют и фотографируют миллиарды отдаленных планет.
С помощью уникальной передовой технологии "Наша вселенная 3D" даст вам возможность насладиться сногсшибательными видами и разгадать необыкновенные звездные феномены, не выходя из дома.
Качество: BDrip
Контейнер: MKV
Формат 3D: Anamorph OverUnder / Вертикальная анаморфная стереопара
Видео кодек: x264
Аудио кодек: AC-3
Видео: AVC, High@L4.1, 1920х1080, 23,976 кадра/сек, 11,4 Мбит/сек
Аудио:
#1 - Русский / AC3 / 48 KHz / 2 ch / 448 Kbps (Дубляж - BD 3D)
#2 - Английский / AC3 / 48 KHz / 2 ch / 448 Kbps
Субтитры: отсутствуют

Скриншоты

Media Info

Код:
Общее
Уникальный идентификатор                 : 215193337797283214539635111884018085030 (0xA1E4BAB4096755249F798135CBD2ECA6)
Полное имя                               : H:\Source\OurUniverse.3D.2013.BD3DRip.Half.OU.x264.AC3.3D-RuGroup.mkv
Формат                                   : Matroska
Версия формата                           : Version 4 / Version 2
Размер файла                             : 4,51 Гбайт
Продолжительность                        : 51 м.
Общий поток                              : 12,5 Мбит/сек
Название фильма                          : Our Universe 3D (2013) Release 3D-RuGroup
Дата кодирования                         : UTC 2013-11-17 15:33:47
Программа кодирования                    : mkvmerge v6.3.0 ('You can't stop me!') built on Jul 19 2013 16:27:38
Библиотека кодирования                   : libebml v1.3.0 + libmatroska v1.4.1
Видео
Идентификатор                            : 1
Формат                                   : AVC
Формат/Информация                        : Advanced Video Codec
Профиль формата                          : High@L4.1
Параметр CABAC формата                   : Да
Параметр ReFrames формата                : 4 кадра
Идентификатор кодека                     : V_MPEG4/ISO/AVC
Продолжительность                        : 51 м.
Битрейт                                  : 11,4 Мбит/сек
Ширина                                   : 1920 пикселей
Высота                                   : 1080 пикселей
Соотношение сторон                       : 16:9
Режим частоты кадров                     : Постоянный
Частота кадров                           : 23,976 кадра/сек
Цветовое пространство                    : YUV
Субдискретизация насыщенности            : 4:2:0
Битовая глубина                          : 8 бит
Тип развёртки                            : Прогрессивная
Бит/(Пиксели*Кадры)                      : 0.229
Размер потока                            : 4,09 Гбайт (91%)
Библиотека кодирования                   : x264 core 130 r2273 b3065e6
Настройки программы                      : cabac=1 / ref=4 / deblock=1:-3:-3 / analyse=0x3:0x133 / me=umh / subme=10 / psy=1 / psy_rd=1.00:0.15 / mixed_ref=1 / me_range=32 / chroma_me=1 / trellis=2 / 8x8dct=1 / cqm=0 / deadzone=21,11 / fast_pskip=0 / chroma_qp_offset=-3 / threads=12 / lookahead_threads=2 / sliced_threads=0 / nr=0 / decimate=1 / interlaced=0 / bluray_compat=0 / constrained_intra=0 / bframes=8 / b_pyramid=2 / b_adapt=2 / b_bias=0 / direct=3 / weightb=1 / open_gop=0 / weightp=2 / keyint=250 / keyint_min=23 / scenecut=40 / intra_refresh=0 / rc_lookahead=60 / rc=crf / mbtree=1 / crf=16.0 / qcomp=0.60 / qpmin=0 / qpmax=69 / qpstep=4 / vbv_maxrate=50000 / vbv_bufsize=62500 / crf_max=0.0 / nal_hrd=none / ip_ratio=1.40 / aq=1:0.90
Default                                  : Да
Forced                                   : Нет
Аудио #1
Идентификатор                            : 2
Формат                                   : AC-3
Формат/Информация                        : Audio Coding 3
Расширение режима                        : CM (complete main)
Параметр Endianness формата              : Big
Идентификатор кодека                     : A_AC3
Продолжительность                        : 51 м.
Вид битрейта                             : Постоянный
Битрейт                                  : 448 Кбит/сек
Каналы                                   : 2 канала
Расположение каналов                     : Front: L R
Частота                                  : 48,0 КГц
Битовая глубина                          : 16 бит
Метод сжатия                             : С потерями
Размер потока                            : 165 Мбайт (4%)
Заголовок                                : Дубляж - BD 3D
Язык                                     : Russian
Default                                  : Да
Forced                                   : Нет
Аудио #2
Идентификатор                            : 3
Формат                                   : AC-3
Формат/Информация                        : Audio Coding 3
Расширение режима                        : CM (complete main)
Параметр Endianness формата              : Big
Идентификатор кодека                     : A_AC3
Продолжительность                        : 51 м.
Вид битрейта                             : Постоянный
Битрейт                                  : 448 Кбит/сек
Каналы                                   : 2 канала
Расположение каналов                     : Front: L R
Частота                                  : 48,0 КГц
Битовая глубина                          : 16 бит
Метод сжатия                             : С потерями
Размер потока                            : 165 Мбайт (4%)
Заголовок                                : Original - BD 3D
Язык                                     : English
Default                                  : Нет
Forced                                   : Нет
Меню
00:00:00.000                             : :1
00:07:03.214                             : :2
00:12:49.268                             : :3
00:19:15.613                             : :4
00:25:54.762                             : :5
00:31:54.287                             : :6
00:36:05.497                             : :7
00:42:25.460                             : :8
Благодарности релизеру (87)

Торрент:

Статус:

Размер:

Зарегистрирован   [ 2013-11-17 19:47 ]

проверено

4.51 GB

 
 Мнение о фильме (32)

Пред.  1, 2






Смотрел вместе с сыном( сыну 10 лет).Нам очень понравилось
 

++++++++++))))))))
 

Отлично,большое спасибо
 

сергей 2010 подскажите как сменить настройку 3д в тв чтобы вылеты были больше?
 

Фильм хороший, 3D есть но без эффектов как таковых, с учетом что это компьютерная графика.
 

Классное кино.
 

Класс!!!!
 

филь понравился. Смотрели семьей
 

Советую любителям таких тем. Долго ждал посмотреть документалку о космосе в 3d
 

испортила пропаганда про Венеру "при правильных расчетах можно было посадить аппарат на планету" типа цитаты. в Реале только СССР занимался Венерой и Успешно. А тут детям пропаганда что только пиндосы исследуют космос, а про Юпитер и как их модуль расплющило так это не из-за неправильных расчетов. Вообщем переводчикам минус. Не важно как звучит текст у пиндосов. Важно что внушают детям, а на это у озвучки есть возможность исправить.
 

Ничего нового. Сюжет заезжен. 3D хоть и хорошее, но нереальное. Ну не бывает такой картинки в космосе.
 

Прекрасный фильм о космосе в 3D
Спасибо!
 

Страница 2 из 2

Пред.  1, 2