Торренты   
 
 

 

Смурфики 2 в 3Д / The Smurfs 2 3D (Раджа Госнелл / Raja Gosnell) [2013, Мультфильм, Фэнтези, Комедия, Семейный, BDrip, 1080p]Full OverUnder / Вертикальная стереопара

Рейтинг 3D:
79 голосов
8.3
Рейтинг фильма:
76 голосов
8.1
 
Вы должны быть авторизированы,
чтобы ставить оценки


Смурфики 2 / The Smurfs 2
Год выпуска: 2013
Страна: США
Студия: Columbia Pictures, Sony Pictures Animation, Kerner Entertainment Company
Жанр: Мультфильм, Фэнтези, Комедия, Семейный
Продолжительность: 01:44:54
Перевод: Профессиональный (дублированный)
Русские субтитры: нет
Режиссер на русском: Раджа Госнелл
Режиссер на английском: Raja Gosnell
В ролях: Хэнк Азария, Нил Патрик Харрис, Брендан Глисон, Джейма Мейс, Джонатан Уинтерс, Кэти Перри, Кристина Риччи, Дж.Б. Смув, Джордж Лопес, Антон Ельчин
Описание: Гаргамел создаёт Хакуса и Векси, как две капли воды похожую на смурфиков злобную парочку, надеясь всё-таки обрести магическую силу. Когда он узнаёт, что лишь настоящий смурф может дать ему то, что он хочет, и лишь Смурфетта способна превратить Хакуса и Векси в настоящих смурфов, Гаргамел похищает Смурфетту и берёт её с собой в Париж, планируя сделать её своей прислужницей. Но смурфики — Папа, Растяпа, Смельчак, Ворчун, Красавчик, Благоразумник — и их друзья из Нью-Йорка этого так не оставят. Тем более что к ним присоединился новорождённый Голубчик.
Сэмпл:http://www.sendspace.com/file/s3iuxm
Качество: BDrip
Контейнер: MKV
Формат 3D: OverUnder / Вертикальная стереопара
Порядок ракурсов: левый ракурс первый
Видео кодек: x264
Аудио кодек: AC3
Видео: AVC / High@L5.0 / 23,976 fps / 1920х2160 / 19,8 Мбит/сек
Аудио: Русский / AC3 / 48 KHz / 5.1 ch / 448 Кбит/сек
Аудио 2: Украинский / AC3 / 48 KHz / 5.1 ch / 448 Кбит/сек
Аудио 3: Английский / AC3 / 48 KHz / 5.1 ch / 640 Кбит/сек
Релиз группы: ВНИМАНИЕ ! На встроенных ТВ-плеерах работать не будет!!!
Железные плееры на которых воспроизводятся полные стереопары:Popcorn C-200 , Dune HD Smart D1 , Dune HD DUO , Dune HD Smart H1 , Dune HD Smart B1 , Dune HD Max , Dune HD TV-303D , Dune HD Base 3D , Dune HD TV-301

MediaInfo

Общее
Уникальный идентификатор : 193446475143875910263774475474341713580 (0x91886F97E6A7515F98A5EFA126DFD6AC)
Полное имя : E:\закачки\The Smurfs 2.Rip by SeRoGa00.mkv
Формат : Matroska
Версия формата : Version 2
Размер файла : 16,0 Гбайт
Продолжительность : 1 ч. 44 м.
Общий поток : 21,8 Мбит/сек
Дата кодирования : UTC 2013-11-19 15:49:37
Программа кодирования : mkvmerge v3.4.0 ('Rapunzel') сборка от May 15 2010 09:38:20
Библиотека кодирования : libebml v0.8.0 + libmatroska v0.9.0
Видео
Идентификатор : 1
Формат : AVC
Формат/Информация : Advanced Video Codec
Профиль формата : High@L5.0
Параметр CABAC формата : Да
Параметр ReFrames формата : 4 кадра
Идентификатор кодека : V_MPEG4/ISO/AVC
Продолжительность : 1 ч. 44 м.
Битрейт : 19,8 Мбит/сек
Ширина : 1920 пикселей
Высота : 2160 пикселей
Соотношение сторон : 0,889
Частота кадров : 23,976 кадра/сек
Цветовое пространство : YUV
Субдискретизация насыщенности : 4:2:0
Битовая глубина : 8 бит
Тип развёртки : Прогрессивная
Бит/(Пиксели*Кадры) : 0.200
Размер потока : 14,5 Гбайт (91%)
Заголовок : Rip by SeRoGa00
Библиотека кодирования : x264 core 138 r2356 a1d3d17
Настройки программы : cabac=1 / ref=4 / deblock=1:-3:-3 / analyse=0x3:0x113 / me=umh / subme=9 / psy=1 / psy_rd=1.00:0.15 / mixed_ref=1 / me_range=24 / chroma_me=1 / trellis=2 / 8x8dct=1 / cqm=0 / deadzone=21,11 / fast_pskip=1 / chroma_qp_offset=-3 / threads=9 / lookahead_threads=1 / sliced_threads=0 / nr=0 / decimate=1 / interlaced=0 / bluray_compat=0 / constrained_intra=0 / bframes=8 / b_pyramid=2 / b_adapt=2 / b_bias=0 / direct=3 / weightb=1 / open_gop=0 / weightp=2 / keyint=250 / keyint_min=23 / scenecut=40 / intra_refresh=0 / rc_lookahead=60 / rc=crf / mbtree=1 / crf=18.0 / qcomp=0.60 / qpmin=10 / qpmax=69 / qpstep=4 / vbv_maxrate=40000 / vbv_bufsize=40000 / crf_max=0.0 / nal_hrd=none / ip_ratio=1.40 / aq=1:1.00
Язык : English
Аудио #1
Идентификатор : 2
Формат : AC-3
Формат/Информация : Audio Coding 3
Расширение режима : CM (complete main)
Идентификатор кодека : A_AC3
Продолжительность : 1 ч. 44 м.
Вид битрейта : Постоянный
Битрейт : 448 Кбит/сек
Каналы : 6 каналов
Расположение каналов : Front: L C R, Side: L R, LFE
Частота : 48,0 КГц
Битовая глубина : 16 бит
Метод сжатия : С потерями
Размер потока : 336 Мбайт (2%)
Язык : Russian
Аудио #2
Идентификатор : 3
Формат : AC-3
Формат/Информация : Audio Coding 3
Расширение режима : CM (complete main)
Идентификатор кодека : A_AC3
Продолжительность : 1 ч. 44 м.
Вид битрейта : Постоянный
Битрейт : 448 Кбит/сек
Каналы : 6 каналов
Расположение каналов : Front: L C R, Side: L R, LFE
Частота : 48,0 КГц
Битовая глубина : 16 бит
Метод сжатия : С потерями
Размер потока : 336 Мбайт (2%)
Язык : Ukrainian
Аудио #3
Идентификатор : 4
Формат : AC-3
Формат/Информация : Audio Coding 3
Расширение режима : CM (complete main)
Идентификатор кодека : A_AC3
Продолжительность : 1 ч. 44 м.
Вид битрейта : Постоянный
Битрейт : 640 Кбит/сек
Каналы : 6 каналов
Расположение каналов : Front: L C R, Side: L R, LFE
Частота : 48,0 КГц
Битовая глубина : 16 бит
Метод сжатия : С потерями
Размер потока : 480 Мбайт (3%)
Язык : English

Скриншоты


Остальные раздачи этого фильма (2)
Благодарности релизеру (6)

Торрент:

Статус:

Размер:

Зарегистрирован   [ 2013-11-19 20:43 ]

* не проверено

15.98 GB

 
 Мнение о фильме (21)

1, 2  След.






Смотрели всей семьей в кинотеатре, добрый фильм младшенькому 4 так он вообще был в восторге. стоит такой фильм держать в детской видеотеке.
 

осмурфительное кино :)
 

отличное кино смотрим всем городом ,как вам моя оценка ,довольны ?
 

Приятно было смотреть, все довольны.
 

прикольное и доброе кино. Класс!
 

Такой же хороший и добрый фильм, как и первый. Идеален для семейного просмотра (что я и сделал :).
 

фильм хороший только кот какойто дерганный
 
АНДРЕЙЗ0Л0Т0К Профиль 30-Ноя-2013 09:53

Отличное качество 3D, ребенок в восторге, сюжет в первой части поинтереснее (ИМХО), релизеру огроменное спасибо за труд.
 

Отличное качество 3D, ребенок доволен
 

Спасибо! хороший мультик!
 

3D очень реалистичное. Даже жене понравилось, а она обычно равнодушна к 3D:)
 

TV Samsung D7000 подхватил с внешнего диска. 3D шикарное .
 

Спасибо! мультик клёвый!
 

Спасибо, фильм отличный. С удовольствием посмотрели всей семьей. 3D тоже на уровне. Так что фильм уходит в домашнюю коллекцию.
 

Спасибо, фильм отличный доброе кино. Класс!
 

Добрый детский фильм. Спасибо!!
 

Очень хороший и добрый мультик
 

Замечательно семейное кино!
Отличная добрая сказка, с красивым добрым сюжетом и великолепным видео.
 

Отличное качество 3D, ребенок в восторге
 

спасибо! красивый, интересный мультик.
 

Страница 1 из 2

1, 2  След.