Торренты   
 
 

 

10 новых трейлеров [2013 г., 2014 г., DCPrip, Anamorph OverUnder]

Рейтинг 3D:
46 голосов
8.3
Рейтинг фильма:
47 голосов
8.1
 
Вы должны быть авторизированы,
чтобы ставить оценки


10 новых трейлеров
Год выпуска: 2013-2014
Страна: Россия, США...
Продолжительность: общая 00:20:14--Описание:
1: 47 ронинов - 47 Ronin
2: Первый мститель: Другая война - Captain America: The Winter Soldier
3: Земля медведей - Land of the Bears
4: Малефисента - Maleficent
5: Рио 2 - Rio 2
6: Приключения мышонка - Rodencia
7: Люди Икс: Дни минувшего будущего - X-Men: Days of Future Past
8: Вий 3D
9: Три мушкетера
10: Храбрый Портняжка и Тайна принцесс
--Формат 3D: Anamorph OverUnder (левый ракурс верхний)
Качество: DCPrip
Видео: AVC / 1920х1080 / 24 fps /
Аудио: AC3 / 6 ch / 448 Kbps / 48 KHz / Русский

Скриншоты

Media Info Одного из файлов

Общее
Уникальный идентификатор : 188544041457902464871593155895472231111 (0x8DD842F37F0334BB92533D8AA34912C7)
Полное имя : L:\_3D\3D-Trailers\_2013\3D\Trailer_X-MenDaysOfFuturePast(3D)HalfOU-abq.mkv
Формат : Matroska
Версия формата : Version 2
Размер файла : 211 Мбайт
Продолжительность : 2 м. 28 с.
Общий поток : 11,9 Мбит/сек
Дата кодирования : UTC 2013-11-21 19:01:39
Программа кодирования : mkvmerge v4.0.0 ('The Stars were mine') сборка от Jun 6 2010 16:18:42
Библиотека кодирования : libebml v1.0.0 + libmatroska v1.0.0
Видео
Идентификатор : 1
Формат : AVC
Формат/Информация : Advanced Video Codec
Профиль формата : High@L4.1
Параметр CABAC формата : Да
Параметр ReFrames формата : 4 кадра
Идентификатор кодека : V_MPEG4/ISO/AVC
Продолжительность : 2 м. 28 с.
Битрейт : 11,2 Мбит/сек
Ширина : 1920 пикселей
Высота : 1080 пикселей
Соотношение сторон : 16:9
Режим частоты кадров : Постоянный
Частота кадров : 24,000 кадра/сек
Цветовое пространство : YUV
Субдискретизация насыщенности : 4:2:0
Битовая глубина : 8 бит
Тип развёртки : Прогрессивная
Бит/(Пиксели*Кадры) : 0.225
Размер потока : 199 Мбайт (94%)
Библиотека кодирования : x264 core 116 r2074 2641b9e
Настройки программы : cabac=1 / ref=4 / deblock=1:-3:-3 / analyse=0x3:0x113 / me=umh / subme=9 / psy=1 / psy_rd=1.00:0.15 / mixed_ref=1 / me_range=32 / chroma_me=1 / trellis=2 / 8x8dct=1 / cqm=0 / deadzone=21,11 / fast_pskip=1 / chroma_qp_offset=-3 / threads=6 / sliced_threads=0 / nr=0 / decimate=1 / interlaced=0 / bluray_compat=0 / constrained_intra=0 / bframes=6 / b_pyramid=2 / b_adapt=2 / b_bias=0 / direct=3 / weightb=1 / open_gop=0 / weightp=2 / keyint=240 / keyint_min=24 / scenecut=40 / intra_refresh=0 / rc_lookahead=60 / rc=crf / mbtree=1 / crf=18.0 / qcomp=0.85 / qpmin=0 / qpmax=69 / qpstep=4 / vbv_maxrate=40000 / vbv_bufsize=40000 / crf_max=0.0 / nal_hrd=none / frame-packing=4 / ip_ratio=1.40 / aq=1:0.70
Язык : English
Default : Нет
Forced : Нет
Аудио
Идентификатор : 2
Формат : AC-3
Формат/Информация : Audio Coding 3
Расширение режима : CM (complete main)
Параметр Endianness формата : Big
Идентификатор кодека : A_AC3
Продолжительность : 2 м. 28 с.
Вид битрейта : Постоянный
Битрейт : 448 Кбит/сек
Каналы : 6 каналов
Расположение каналов : Front: L C R, Side: L R, LFE
Частота : 48,0 КГц
Битовая глубина : 16 бит
Метод сжатия : С потерями
Размер потока : 7,95 Мбайт (4%)
Язык : Russian
Default : Да
Forced : Нет
Благодарности релизеру (53)

Торрент:

Статус:

Размер:

Зарегистрирован   [ 2013-11-21 23:16 ]

проверено

1.83 GB

 
 Мнение о фильме (16)





Спасибо за порцию новых трейлеров. В плане 3D больше всех впечатлил Вий, вроде видно 3D честное, не конвертация. Да и так во всех трейлерах хорошее 3D ну кроме российских "шедевров"
 

Если такой кинематограф нас ждет в следующем году - это печаль(
Вий, Земля медведей - посмотрю, но остальное...
 

можно смотреть, фильм интересней....3д нормальное...
 

В первую очередь посмотрел бы Вий
 

Спасибо!
 

можно посмотреть эффект 3д в роликах нормальный
 

Однозначно, Вий и MALEFICENT.
Вопрос по Вию. Этот ролик демонстрировали в кинотеатрах или был еще один?
 

Вий, Рио ничего а остальное, по крайней мере в трейлере ничего интересного.
Спасибо за раздачу.
 

ролики все хорошие
 
АНДРЕЙЗ0Л0Т0К Профиль 30-Ноя-2013 09:50

нормал..но что можно сказать по роликам? ждём кино!!!!!!!
 

Спасибо!Есть что в следующем году посмотреть!!
 

Только Вий и заинтересовал.
 

Меня тоже больше всего Вий заинтересовал. По трейлерам, конечно, трудно судить о всем фильме, но уже хоть кое что...
 

Я бы все посмотрела.
 

ждем вий!
 

прекрасные трейлеры