Торренты   
 
 

 

Самолёты в 3Д / Planes 3D (Клэй Холл / Klay Hall) [2013, Мультфильм, Комедия, Приключения, Семейный, BDrip, 1080p]Full OverUnder / Вертикальная стереопара

Рейтинг 3D:
64 голосов
7.5
Рейтинг фильма:
62 голосов
7.5
 
Вы должны быть авторизированы,
чтобы ставить оценки


Самолёты / Planes
Год выпуска: 2013
Страна: США
Студия: DisneyToon Studios
Жанр: Мультфильм, Комедия, Приключения, Семейный
Продолжительность: 01:31:35
Перевод: Профессиональный дублированный(Лицензия)
Русские субтитры: нет
Режиссер на русском: Клэй Холл
Режиссер на английском: Klay Hall
В ролях: Дейн Кук, Стейси Кич, Брэд Гэррет, Тери Хэтчер, Джулия Луис-Дрейфус, Приянка Чопра, Джон Клиз, Седрик «Развлекатель», Карлос Алазраки, Роджер Крэйг Смит
Описание: Дасти Полейполе — скромный трудяга-самолет, работающий сельскохозяйственным распылителем на заштатном провинциальном аэродроме. Однако это не мешает ему мечтать о том, чтобы однажды принять участие в кругосветных гонках самых быстрых самолетов. Одна незадача — Дасти панически боится большой высоты. Поэтому, когда волею случая он все же попадает в число участников отборочного тура воздушных соревнований, ему приходится искать помощи у ветерана военно-морской авиации, отставного истребителя Шкипера. С помощью мудрого наставника Дасти сможет преодолеть свои слабости и бросить вызов надменному чемпиону Рипслингеру, а весь мир будет с замиранием сердца следить за гонкой в небесах!..
Сэмпл: http://www.sendspace.com/file/sg0aif
Качество: BDrip
Контейнер: MKV
Формат 3D: OverUnder / Вертикальная стереопара
Порядок ракурсов: левый ракурс первый
Видео кодек: x264
Аудио кодек: AC3
Видео: AVC / High@L5.0 / 23,976 fps / 1920х2160 / 13,9 Мбит/сек
Аудио: Русский / AC3 / 48 KHz / 5.1 ch / 640 Кбит/сек
Аудио 2: Английский / AC3 / 48 KHz / 5.1 ch / Кбит/сек
Релиз группы: ВНИМАНИЕ ! На встроенных ТВ-плеерах работать не будет!!!
Железные плееры на которых воспроизводятся полные стереопары:Popcorn C-200 , Dune HD Smart D1 , Dune HD DUO , Dune HD Smart H1 , Dune HD Smart B1 , Dune HD Max , Dune HD TV-303D , Dune HD Base 3D , Dune HD TV-301

12.12.2013. Релиз обновлён - русская дорога заменена на лицензию. Желающие, скачайте заново торрент-файл.

MediaInfo

Общее
Уникальный идентификатор : 200876924400374006690823548150690428839 (0x971F7D06BA559A31A27E9E151A9D37A7)
Полное имя : E:\закачки\Planes.Rip by SeRoGa00 (1).mkv
Формат : Matroska
Версия формата : Version 2
Размер файла : 9,89 Гбайт
Продолжительность : 1 ч. 31 м.
Общий поток : 15,5 Мбит/сек
Дата кодирования : UTC 2013-12-12 20:23:59
Программа кодирования : mkvmerge v3.4.0 ('Rapunzel') сборка от May 15 2010 09:38:20
Библиотека кодирования : libebml v0.8.0 + libmatroska v0.9.0
Видео
Идентификатор : 1
Формат : AVC
Формат/Информация : Advanced Video Codec
Профиль формата : High@L5.0
Параметр CABAC формата : Да
Параметр ReFrames формата : 4 кадра
Идентификатор кодека : V_MPEG4/ISO/AVC
Продолжительность : 1 ч. 31 м.
Битрейт : 13,9 Мбит/сек
Ширина : 1920 пикселей
Высота : 2160 пикселей
Соотношение сторон : 0,889
Частота кадров : 23,976 кадра/сек
Цветовое пространство : YUV
Субдискретизация насыщенности : 4:2:0
Битовая глубина : 8 бит
Тип развёртки : Прогрессивная
Бит/(Пиксели*Кадры) : 0.140
Размер потока : 8,88 Гбайт (90%)
Заголовок : Rip by SeRoGa00
Библиотека кодирования : x264 core 138 r2356 a1d3d17
Настройки программы : cabac=1 / ref=4 / deblock=1:-3:-3 / analyse=0x3:0x113 / me=umh / subme=9 / psy=1 / psy_rd=1.00:0.15 / mixed_ref=1 / me_range=24 / chroma_me=1 / trellis=2 / 8x8dct=1 / cqm=0 / deadzone=21,11 / fast_pskip=1 / chroma_qp_offset=-3 / threads=9 / lookahead_threads=1 / sliced_threads=0 / nr=0 / decimate=1 / interlaced=0 / bluray_compat=0 / constrained_intra=0 / bframes=8 / b_pyramid=2 / b_adapt=2 / b_bias=0 / direct=3 / weightb=1 / open_gop=0 / weightp=2 / keyint=250 / keyint_min=23 / scenecut=40 / intra_refresh=0 / rc_lookahead=60 / rc=crf / mbtree=1 / crf=18.0 / qcomp=0.60 / qpmin=10 / qpmax=69 / qpstep=4 / vbv_maxrate=40000 / vbv_bufsize=40000 / crf_max=0.0 / nal_hrd=none / ip_ratio=1.40 / aq=1:1.00
Язык : English
Аудио #1
Идентификатор : 2
Формат : AC-3
Формат/Информация : Audio Coding 3
Расширение режима : CM (complete main)
Идентификатор кодека : A_AC3
Продолжительность : 1 ч. 31 м.
Вид битрейта : Постоянный
Битрейт : 640 Кбит/сек
Каналы : 6 каналов
Расположение каналов : Front: L C R, Side: L R, LFE
Частота : 48,0 КГц
Битовая глубина : 16 бит
Метод сжатия : С потерями
Размер потока : 419 Мбайт (4%)
Язык : Russian
Аудио #2
Идентификатор : 3
Формат : AC-3
Формат/Информация : Audio Coding 3
Расширение режима : CM (complete main)
Идентификатор кодека : A_AC3
Продолжительность : 1 ч. 31 м.
Вид битрейта : Постоянный
Битрейт : 640 Кбит/сек
Каналы : 6 каналов
Расположение каналов : Front: L C R, Side: L R, LFE
Частота : 48,0 КГц
Битовая глубина : 16 бит
Метод сжатия : С потерями
Размер потока : 419 Мбайт (4%)
Язык : English

Скриншоты


Остальные раздачи этого фильма (3)
Благодарности релизеру (7)

Торрент:

Статус:

Размер:

Зарегистрирован   [ 2013-12-13 00:38 ]

© закрыто правообладателем

9.89 GB

 
 Мнение о фильме (17)





Хороший мультфильм и 3Д в норме.
 

Детям очень понравился. 3Д хорошее
 

Нам понравился-очень красиво!РЕКОМЕНДУЮ!
 

Фильм отличный! Смеялись от души. Вот только звук не понравился. Система 5.1 играла как моно...
 

Пересняли Тачки на летный мотив. 3Д в норме. Для детей поучающий фильм.
 

отличный мульт. С внучкой посмотрели с удовольствием.
 
Виталий Цыганов Профиль 15-Ноя-2013 09:42

Посмотреть можно, но не впечетлило
 

Посмотреть разок можно, ибо сюжет мягко говоря средненький и 3/4 фильма проходит в созерцании, и лишь к концу появляется какая-то динамика. Лично меня слабо выраженное 3Д не впечатлило, т.к. ожидал лучшего, смотрел на встроенном плеере LG 37LM620T
 

Мультфильм нормальный, для детишек. А вот 3D... слабовато, порою кажется что отсутствует напрочь.
 

теже тачки только с крыльями
 
АНДРЕЙЗ0Л0Т0К Профиль 30-Ноя-2013 09:56

Не сильно впечатлен ни 3Д ни сюжетом. Сюжет вроде бы как детско-юношеский, но уж больно прямолинейный, герои невыразительны, монотонны и скучны. Сравнивать с "тачками" считаю абсолютно некорректным, этот фильм ИМХО минимум на порядок хуже....
 

Что-то детки без особо интереса посмотрели и повторить не требовали как обычно
 

Спасибо! мультик интересный.
 

Спасибо за напоминание, чтобы оставил отзыв...Закрутился..Извините...Мультик - красочный, Эффект 3D для детей очень иногда неожиданный, чем и интересен...Да и для взрослых тоже увлечение, хотя основные зрители - наши дети...После просмотра тяжело заставить детей обсудить мультик, если взрослые не проявляют своего интереса...Никак не раскачаешь их, а вот когда вместе, то поделиться самыми моментами - это уже наперебой!!! Спасибо за возможность расширять кругозор детей! Респект раздатчику!!!
 

Хороший мульт.
 

мульт хорош и 3d неплоха
 

Похуже тачек, но посмотреть можно.