Торренты   
 
 


Доктор Кто: День Доктора / Doctor Who: The Day of the Doctor (Ник Харран) [2013 г., Anamorph SideBySide]

Рейтинг 3D:
113 голосов
6.5
Рейтинг фильма:
120 голосов
6.0
 
Вы должны быть авторизированы,
чтобы ставить оценки


Доктор Кто: День Доктора
Doctor Who: The Day of the Doctor
Сезон 7 эпизод 15
Год выпуска: 2013
Страна: Великобритания (телеканал ВВС)
Жанр: фантастика, приключения, драма
Продолжительность: 01:16:46
Перевод: Профессиональный (многоголосый, закадровый)
Режиссер: Ник Харран
В ролях: Мэтт Смит, Дэвид Теннант, Дженна Коулман, Билли Пайпер, Джон Хёрт, Джемма Редгрейв, Джоанна Пейдж, Ингрид Оливер и др.
Описание: В 2013 году что-то ужасное пробуждается в Национальной галерее Лондона; в 1562 году смертельный заговор зреет в елизаветинской Англии; а где-то в космосе многовековая битва достигает сокрушительного заключения.
Качество: HDTV
Контейнер: MKV
Формат 3D: Anamorph SideBySide / Горизонтальная анаморфная стереопара
Видео кодек: Н.264
Аудио кодек: AC-3
Видео: AVC, High@L4.0, 1920х1080, 25 кадра/сек, 6557 Кбит/сек
Аудио: Русский / AC3 / 48 KHz / 5.1 ch / 384 Кбит/сек |Многоголосый закадровый, ВГТРК|

Скриншоты

Media Info

Общее
Уникальный идентификатор : 217982876393724464487549404354170234245 (0xA3FDF9931D37EB35B081FECAD59AA585)
Полное имя : H:\Source\Doctor.Who.The.Day.Of.The.Doctor.3D.3D.HalfSBS.1080i.HDTV.DD5.1.H.264.3D-RuGroup.mkv
Формат : Matroska
Версия формата : Version 4 / Version 2
Размер файла : 3,80 Гбайт
Продолжительность : 1 ч. 16 м.
Общий поток : 7082 Кбит/сек
Название фильма : Doctor Who 2005: 50th Anniversary Special - The Day of the Doctor (2013)
Дата кодирования : UTC 2013-11-25 18:09:18
Программа кодирования : mkvmerge v6.3.0 ('You can't stop me!') built on Jul 19 2013 16:27:38
Библиотека кодирования : libebml v1.3.0 + libmatroska v1.4.1
Видео
Идентификатор : 1
Формат : AVC
Формат/Информация : Advanced Video Codec
Профиль формата : High@L4.0
Параметр CABAC формата : Да
Параметр ReFrames формата : 4 кадра
Параметр GOP формата : M=8, N=24
Идентификатор кодека : V_MPEG4/ISO/AVC
Продолжительность : 1 ч. 16 м.
Битрейт : 6557 Кбит/сек
Ширина : 1920 пикселей
Высота : 1080 пикселей
Соотношение сторон : 16:9
Режим частоты кадров : Постоянный
Частота кадров : 25,000 кадров/сек
Цветовое пространство : YUV
Субдискретизация насыщенности : 4:2:0
Битовая глубина : 8 бит
Тип развёртки : MBAFF
Бит/(Пиксели*Кадры) : 0.126
Размер потока : 3,52 Гбайт (93%)
Default : Да
Forced : Нет
Основные цвета : BT.709
Характеристики трансфера : BT.709
Коэффициенты матрицы : BT.709
Аудио
Идентификатор : 2
Формат : AC-3
Формат/Информация : Audio Coding 3
Расширение режима : CM (complete main)
Параметр Endianness формата : Big
Идентификатор кодека : A_AC3
Продолжительность : 1 ч. 16 м.
Вид битрейта : Постоянный
Битрейт : 384 Кбит/сек
Каналы : 6 каналов
Расположение каналов : Front: L C R, Side: L R, LFE
Частота : 48,0 КГц
Битовая глубина : 16 бит
Метод сжатия : С потерями
Задержка видео : -256 мс.
Размер потока : 211 Мбайт (5%)
Заголовок : ВГТРК 5.1
Язык : Russian
Default : Да
Forced : Нет
-- Релиз группы:

Проверено на встроенном плейере ТВ LG 42LW4500
--
Остальные раздачи этого фильма (3)
Благодарности релизеру (58)

Торрент:

Статус:

Размер:

Зарегистрирован   [ 2013-11-25 23:53 ]

проверено

3.8 GB

 
 Мнение о фильме (66)

1, 2, 3, 4  След.






Рекомендую
 

фильм охринеть спасибо
 

Ходил в кино, супер!
 

Интересная серия, и 3d хорошее.
 

Хороший получился фильм, дает представление о всем сериале даже тем, кто не видел ни одной серии, уважительно вспомнили всех исполнителей роли Доктора, завершили одни и начали другие сюжетные линии. Так и еще на 50 лет хватит :)! 3D хорошее, хоть и без эффектных вылетов.
 

фильм бред полнейший, видимо на любителя.
 

восхитительно)
Интересно, дальше будут серии в 3д выходить?
 

посмотрел 15 минут. Далее мой действия были: Shift+del
 

Мм да, похоже я тоже не любитель..
 

Отличная взаимосвязь фантастики и 3D. Забавный фильм.
 

Кто-то сказал про сюжет? Такой сюжет мог предумать только шизофреник! Не фильм ,а какой-то "винегрет".
 

wolfhound81, это и не фильм, это сериал которому уже 50 лет.
 

фуфло
 

Разочарован, на 30 минуте снес.
 

ребят-это не фильм)-это сериал, при чем 15я серия 7го сезона)
Так что кто в теме-тому приятного просмотра) серия просто супер))
 

Выдержал только 12 минут. В топку!
 

Спасибо за раздачу. Кто смотрит сериал - тому фильм придется по вкусу. Как по мне - стандартный британский фильмец ни о чем. 3Д в принципе, просматривается.
 

Поставил на закачку когда тут рейтинг был больше 8 баллов по этому фильму...Сам виноват в своей невнимательности. Я так понял, что фильм только для фанатов сериала. Не уверен что привлечет новых зрителей, так как выхвачен из контекста. Сразу складывается впечатление что смотриш какой-то бред...Возможно если у кого-то хватит терпения посмотреть подольше... Не мой случай.
 

СЕРИАЛ МНЕ НРАВИЛСЯ. А ЭТО ФИГНЯ ПОЛНАЯ. ВООБЩЕ НИЧЕМ НЕ ЗАЦЕПИЛО.
 

фильм фуфло. 3D норм. За релиз спасибо.
 

Страница 1 из 4

1, 2, 3, 4  След.