Торренты   
 
 

 

Перси Джексон и Море чудовищ / Percy Jackson: Sea of Monsters (Тор Фройденталь / Thor Freudenthal) [2013 г., фэнтези, приключения, семейный, BDRip 1080p] Half OverUnder / Вертикальная​ анаморфная стереопара

Рейтинг 3D:
22 голосов
8.1
Рейтинг фильма:
23 голосов
7.2
 
Вы должны быть авторизированы,
чтобы ставить оценки


Перси Джексон и Море чудовищ / Percy Jackson: Sea of Monsters
Год выпуска: 2013
Страна: США
Жанр: фэнтези, приключения, семейный,
Продолжительность: 01:46:12
Перевод: Дубляж, Лицензия
Субтитры: Русские, Украинские, Английские
Режиссер: Тор Фройденталь / Thor Freudenthal
Продюссер: Майкл Барнатан, Крис Коламбус, Карен Розенфельт
Сценарий: Марк Гуггенхайм, Рик Риордан
Бюджет: $90 000 000
Премьера в мире: 7 августа 2013

В ролях: Логан Лерман, Александра Даддарио, Дуглас Смит, Ливэн Рамбин, Брэндон Т. Джексон, Джейк Эйбел, Энтони Хэд, Стэнли Туччи, Коннор Крэш Данн, Палома Квиатковски
Роли дублировали: Глеб Гаврилов, Игорь Сергеев, Станислав Концевич, Валерий Смекалов и др.,
Описание: Лагерь полукровок атакует Люк Кастеллан, который раскрывает свои планы по уничтожению горы Олимп. Наставник Перси, Хирон узнает, что Люк отравил волшебное дерево, которое отвечает за барьер, защищающий Лагерь Полукровок, и которое создано из Талии Грейс, дочери Зевса, убитой циклопом. Аннабет Чейз выясняет, что Золотое Руно может восстановить дерево, и директор лагеря, Дионис, посылает Клариссу Ла Ру, дочь Ареса и соперницу Перси, найти его…
Доп. информация: Формат 3D: Half OverUnder / Вертикальная анаморфная стереопара
Порядок ракурсов: левый ракурс первый
Качество: BDRip 1080p
Формат: MKV
Видео кодек: H.264
Аудио кодек: AC3
Видео: (x264 L4.1) / 23,976 fps / 1920 x 1080 (16:9) / 11,1 Mbps / 0.222 bit/pixel
Аудио#1: AC3 / 48 KHz / 5.1 ch / 448 kbps / Русский дубляж, BD EUR
Аудио#2: AC3 / 48 KHz / 5.1 ch / 448 kbps / Украинский дубляж, BD EUR
Аудио#3: AC3 / 48 KHz / 5.1 ch / 448 kbps / Английский original, BD EUR

Скриншоты

MediaInfo

Общее
Уникальный идентификатор : 253810024015480594554497816178672102405 (0xBEF20854C8C7E732BE9D7E9D92D96C05)
Полное имя : E:Percy.Jackson.Sea.Of.Monsters.3D.2013.1080p.BluRay.HOU.x264.mkv
Формат : Matroska
Версия формата : Version 4 / Version 2
Размер файла : 9,38 Гбайт
Продолжительность : 1 ч. 46 м.
Общий поток : 12,6 Мбит/сек
Название фильма : Перси Джексон и Море чудовищ / Percy Jackson: Sea of Monsters. 3D (2013) BDRip Half-OU
Дата кодирования : UTC 2013-11-29 11:43:31
Программа кодирования : mkvmerge v6.2.0 ('Promised Land') built on Apr 28 2013 12:22:01
Библиотека кодирования : libebml v1.3.0 + libmatroska v1.4.0
Видео
Идентификатор : 1
Формат : AVC
Формат/Информация : Advanced Video Codec
Профиль формата : High@L4.1
MultiView_Count : 2
MultiView_Layout : Top-Bottom (left eye first)
Параметр CABAC формата : Да
Параметр ReFrames формата : 4 кадра
Идентификатор кодека : V_MPEG4/ISO/AVC
Продолжительность : 1 ч. 46 м.
Битрейт : 11,1 Мбит/сек
Ширина : 1920 пикселей
Высота : 1080 пикселей
Соотношение сторон : 16:9
Частота кадров : 23,976 кадра/сек
Цветовое пространство : YUV
Субдискретизация насыщенности : 4:2:0
Битовая глубина : 8 бит
Тип развёртки : Прогрессивная
Бит/(Пиксели*Кадры) : 0.222
Размер потока : 8,20 Гбайт (87%)
Заголовок : Percy Jackson: Sea of Monsters. 3D (2013) BDRip HOU.mkv
Язык : English
Аудио #1
Идентификатор : 2
Формат : AC-3
Формат/Информация : Audio Coding 3
Расширение режима : CM (complete main)
Идентификатор кодека : A_AC3
Продолжительность : 1 ч. 46 м.
Вид битрейта : Постоянный
Битрейт : 448 Кбит/сек
Каналы : 6 каналов
Расположение каналов : Front: L C R, Side: L R, LFE
Частота : 48,0 КГц
Битовая глубина : 16 бит
Метод сжатия : С потерями
Задержка видео : 1 с. 0 мс.
Размер потока : 340 Мбайт (4%)
Заголовок : Dub | DD 5.1 @ 448 kbps - BD EUR
Язык : Russian
Аудио #2
Идентификатор : 3
Формат : AC-3
Формат/Информация : Audio Coding 3
Расширение режима : CM (complete main)
Идентификатор кодека : A_AC3
Продолжительность : 1 ч. 46 м.
Вид битрейта : Постоянный
Битрейт : 448 Кбит/сек
Каналы : 6 каналов
Расположение каналов : Front: L C R, Side: L R, LFE
Частота : 48,0 КГц
Битовая глубина : 16 бит
Метод сжатия : С потерями
Задержка видео : 1 с. 0 мс.
Размер потока : 340 Мбайт (4%)
Заголовок : Dub | DD 5.1 @ 448 kbps
Язык : Ukrainian
Аудио #3
Идентификатор : 4
Формат : AC-3
Формат/Информация : Audio Coding 3
Расширение режима : CM (complete main)
Идентификатор кодека : A_AC3
Продолжительность : 1 ч. 46 м.
Вид битрейта : Постоянный
Битрейт : 448 Кбит/сек
Каналы : 6 каналов
Расположение каналов : Front: L C R, Side: L R, LFE
Частота : 48,0 КГц
Битовая глубина : 16 бит
Метод сжатия : С потерями
Задержка видео : 1 с. 0 мс.
Размер потока : 340 Мбайт (4%)
Заголовок : Original | DD 5.1 @ 448 kbps
Язык : English
Текст #1
Идентификатор : 5
Формат : UTF-8
Идентификатор кодека : S_TEXT/UTF8
Идентификатор кодека/Информация : UTF-8 Plain Text
Заголовок : Blu-ray EUR
Язык : Russian
Текст #2
Идентификатор : 6
Формат : UTF-8
Идентификатор кодека : S_TEXT/UTF8
Идентификатор кодека/Информация : UTF-8 Plain Text
Заголовок : Blu-ray EUR
Язык : Ukrainian
Текст #3
Идентификатор : 7
Формат : UTF-8
Идентификатор кодека : S_TEXT/UTF8
Идентификатор кодека/Информация : UTF-8 Plain Text
Заголовок : SDH-COLORED
Язык : English
Текст #4
Идентификатор : 8
Формат : UTF-8
Идентификатор кодека : S_TEXT/UTF8
Идентификатор кодека/Информация : UTF-8 Plain Text
Заголовок : Full
Язык : English
Меню
00:00:00.000 : en:00:00:00.000
00:04:06.455 : en:00:04:06.455
00:06:44.070 : en:00:06:44.070
00:09:32.697 : en:00:09:32.697
00:13:54.125 : en:00:13:54.125
00:19:18.157 : en:00:19:18.157
00:20:49.039 : en:00:20:49.039
00:22:11.497 : en:00:22:11.497
00:25:31.530 : en:00:25:31.530
00:28:23.827 : en:00:28:23.827
00:30:28.535 : en:00:30:28.535
00:33:20.999 : en:00:33:20.999
00:37:02.262 : en:00:37:02.262
00:39:50.597 : en:00:39:50.597
00:45:17.381 : en:00:45:17.381
00:48:51.178 : en:00:48:51.178
00:52:43.952 : en:00:52:43.952
00:56:36.101 : en:00:56:36.101
01:00:20.867 : en:01:00:20.867
01:03:36.896 : en:01:03:36.896
01:05:41.688 : en:01:05:41.688
01:10:42.697 : en:01:10:42.697
01:12:33.182 : en:01:12:33.182
01:16:53.818 : en:01:16:53.818
01:19:40.442 : en:01:19:40.442
01:23:02.769 : en:01:23:02.769
01:25:46.808 : en:01:25:46.808
01:29:55.265 : en:01:29:55.265
01:32:48.313 : en:01:32:48.313
01:34:26.244 : en:01:34:26.244
01:36:08.972 : en:01:36:08.972
01:37:40.188 : en:01:37:40.188
Благодарности релизеру (24)

Торрент:

Статус:

Размер:

Зарегистрирован   [ 2013-11-29 17:00 ]

поглощено

9.38 GB

 
Комментарии:





Не цепляет! Сюжет слишком банальный, поверхностный и плоский, такая обширная тема, а в итоге сделали "пфф"! События развиваются слишком быстро, у героев все слишком просто и легко! А злодеи это вообще отдельная тема, ЗАЧЕМ он все это мутил? захватить мир? поработить человечество? разнести вселенную в щепки?... Если просто насолить батьку, так отец всегда знает где он и чем занимается, ремня бы дал по заднице и все! Я понимаю что кино для детей, но есть уйма детских фильмов которые намного лучше этого!
Что касается 3Д эффектов, здесь все классно: неплохой объем, хорошие вылеты, интересно сделаны экшн сцены, много разных примочек такие как : брызги, искры, и прочее
 

Топик был перенесен из форума 3D Фильмы в форум Архив

Zagruzin