Торренты   
 
 

 

Перси Джексон и Море чудовищ / Percy Jackson: Sea of Monsters (Тор Фройденталь) [2013 г., Anamorph OverUnder]

Рейтинг 3D:
122 голосов
7.2
Рейтинг фильма:
120 голосов
7.1
 
Вы должны быть авторизированы,
чтобы ставить оценки



Перси Джексон и Море чудовищ / Percy Jackson: Sea of Monsters
Год выпуска: 2013
Страна: США
Жанр: фэнтези, приключения, семейный
Продолжительность: 01:46:09
Перевод: Профессиональный (дублированный) лицензия
Режиссер: Тор Фройденталь
В ролях: Логан Лерман, Александра Даддарио, Дуглас Смит, Ливэн Рамбин, Брэндон Т. Джексон, Джейк Эйбел, Энтони Хэд, Стэнли Туччи, Коннор Крэш Данн, Палома Квиатковски
Описание: Лагерь полукровок атакует Люк Кастеллан, который раскрывает свои планы по уничтожению горы Олимп. Наставник Перси, Хирон узнает, что Люк отравил волшебное дерево, которое отвечает за барьер, защищающий Лагерь Полукровок, и которое создано из Талии Грейс, дочери Зевса, убитой циклопом. Аннабет Чейз выясняет, что Золотое Руно может восстановить дерево, и директор лагеря, Дионис, посылает Клариссу Ла Ру, дочь Ареса и соперницу Перси, найти его...
Качество: BDrip
Контейнер: MKV
Формат 3D: Anamorph OverUnder / Вертикальная анаморфная стереопара
Видео кодек: x264
Аудио кодек: AC-3
Видео: AVC, High@L4.1, 1920х1080, 23,976 кадра/сек, 10,6 Мбит/сек
Аудио:
#1 - Русский / AC3 / 48 KHz / 5.1 ch / 640 Kbps (Дубляж - BD CEE)
#2 - Украинский / AC3 / 48 KHz / 5.1 ch / 448 Kbps (Дубляж - BD CEE)
#3 - Английский / AC3 / 48 KHz / 5.1 ch / 640 Kbps (Original - BD 3D)
Субтитры:
#1 - Русские Полные
#2 - Украинские Полные
#3 - English Full
#4 - English SDH-Color

Скриншоты

Media Info

Код:
Общее
Уникальный идентификатор                 : 202307694103262113877243301286726072962 (0x98330B6B416EE6759949F76284E7FA82)
Полное имя                               : H:\PercyJackson.SeaOfMonsters.3D.2013.BD3DRip.Half.OU.x264.AC3.3D-RuGroup.mkv
Формат                                   : Matroska
Версия формата                           : Version 4 / Version 2
Размер файла                             : 9,32 Гбайт
Продолжительность                        : 1 ч. 46 м.
Общий поток                              : 12,6 Мбит/сек
Название фильма                          : Percy Jackson: Sea of Monsters (2013) 3D release 3D-RuGroup
Дата кодирования                         : UTC 2013-11-29 18:22:28
Программа кодирования                    : mkvmerge v6.3.0 ('You can't stop me!') built on Jul 19 2013 16:27:38
Библиотека кодирования                   : libebml v1.3.0 + libmatroska v1.4.1
Видео
Идентификатор                            : 1
Формат                                   : AVC
Формат/Информация                        : Advanced Video Codec
Профиль формата                          : High@L4.1
Параметр CABAC формата                   : Да
Параметр ReFrames формата                : 4 кадра
Идентификатор кодека                     : V_MPEG4/ISO/AVC
Продолжительность                        : 1 ч. 46 м.
Битрейт                                  : 10,6 Мбит/сек
Ширина                                   : 1920 пикселей
Высота                                   : 1080 пикселей
Соотношение сторон                       : 16:9
Режим частоты кадров                     : Постоянный
Частота кадров                           : 23,976 кадра/сек
Цветовое пространство                    : YUV
Субдискретизация насыщенности            : 4:2:0
Битовая глубина                          : 8 бит
Тип развёртки                            : Прогрессивная
Бит/(Пиксели*Кадры)                      : 0.213
Размер потока                            : 7,85 Гбайт (84%)
Библиотека кодирования                   : x264 core 130 r2273 b3065e6
Настройки программы                      : cabac=1 / ref=4 / deblock=1:-3:-3 / analyse=0x3:0x133 / me=umh / subme=10 / psy=1 / psy_rd=1.00:0.15 / mixed_ref=1 / me_range=32 / chroma_me=1 / trellis=2 / 8x8dct=1 / cqm=0 / deadzone=21,11 / fast_pskip=0 / chroma_qp_offset=-3 / threads=12 / lookahead_threads=2 / sliced_threads=0 / nr=0 / decimate=1 / interlaced=0 / bluray_compat=0 / constrained_intra=0 / bframes=8 / b_pyramid=2 / b_adapt=2 / b_bias=0 / direct=3 / weightb=1 / open_gop=0 / weightp=2 / keyint=250 / keyint_min=23 / scenecut=40 / intra_refresh=0 / rc_lookahead=60 / rc=crf / mbtree=1 / crf=16.0 / qcomp=0.60 / qpmin=0 / qpmax=69 / qpstep=4 / vbv_maxrate=50000 / vbv_bufsize=62500 / crf_max=0.0 / nal_hrd=none / ip_ratio=1.40 / aq=1:0.90
Default                                  : Да
Forced                                   : Нет
Аудио #1
Идентификатор                            : 2
Формат                                   : AC-3
Формат/Информация                        : Audio Coding 3
Расширение режима                        : CM (complete main)
Параметр Endianness формата              : Big
Идентификатор кодека                     : A_AC3
Продолжительность                        : 1 ч. 46 м.
Вид битрейта                             : Постоянный
Битрейт                                  : 640 Кбит/сек
Каналы                                   : 6 каналов
Расположение каналов                     : Front: L C R, Side: L R, LFE
Частота                                  : 48,0 КГц
Битовая глубина                          : 16 бит
Метод сжатия                             : С потерями
Размер потока                            : 486 Мбайт (5%)
Заголовок                                : Дубляж - BD CEE
Язык                                     : Russian
Default                                  : Да
Forced                                   : Нет
Аудио #2
Идентификатор                            : 3
Формат                                   : AC-3
Формат/Информация                        : Audio Coding 3
Расширение режима                        : CM (complete main)
Параметр Endianness формата              : Big
Идентификатор кодека                     : A_AC3
Продолжительность                        : 1 ч. 46 м.
Вид битрейта                             : Постоянный
Битрейт                                  : 448 Кбит/сек
Каналы                                   : 6 каналов
Расположение каналов                     : Front: L C R, Side: L R, LFE
Частота                                  : 48,0 КГц
Битовая глубина                          : 16 бит
Метод сжатия                             : С потерями
Размер потока                            : 340 Мбайт (4%)
Заголовок                                : Дубляж - BD CEE
Язык                                     : Ukrainian
Default                                  : Нет
Forced                                   : Нет
Аудио #3
Идентификатор                            : 4
Формат                                   : AC-3
Формат/Информация                        : Audio Coding 3
Расширение режима                        : CM (complete main)
Параметр Endianness формата              : Big
Идентификатор кодека                     : A_AC3
Продолжительность                        : 1 ч. 46 м.
Вид битрейта                             : Постоянный
Битрейт                                  : 640 Кбит/сек
Каналы                                   : 6 каналов
Расположение каналов                     : Front: L C R, Side: L R, LFE
Частота                                  : 48,0 КГц
Битовая глубина                          : 16 бит
Метод сжатия                             : С потерями
Размер потока                            : 486 Мбайт (5%)
Заголовок                                : Original - BD 3D
Язык                                     : English
Default                                  : Нет
Forced                                   : Нет
Текст #1
Идентификатор                            : 5
Формат                                   : UTF-8
Идентификатор кодека                     : S_TEXT/UTF8
Идентификатор кодека/Информация          : UTF-8 Plain Text
Язык                                     : Russian
Default                                  : Нет
Forced                                   : Нет
Текст #2
Идентификатор                            : 6
Формат                                   : UTF-8
Идентификатор кодека                     : S_TEXT/UTF8
Идентификатор кодека/Информация          : UTF-8 Plain Text
Язык                                     : Ukrainian
Default                                  : Нет
Forced                                   : Нет
Текст #3
Идентификатор                            : 7
Формат                                   : UTF-8
Идентификатор кодека                     : S_TEXT/UTF8
Идентификатор кодека/Информация          : UTF-8 Plain Text
Язык                                     : English
Default                                  : Нет
Forced                                   : Нет
Текст #4
Идентификатор                            : 8
Формат                                   : UTF-8
Идентификатор кодека                     : S_TEXT/UTF8
Идентификатор кодека/Информация          : UTF-8 Plain Text
Язык                                     : English
Default                                  : Нет
Forced                                   : Нет
Меню
00:00:00.000                             : :1
00:04:06.455                             : :2
00:06:44.070                             : :3
00:09:32.697                             : :4
00:13:54.125                             : :5
00:19:18.157                             : :6
00:20:49.039                             : :7
00:22:11.497                             : :8
00:25:31.530                             : :9
00:28:23.827                             : :10
00:30:28.535                             : :11
00:33:20.999                             : :12
00:37:02.262                             : :13
00:39:50.597                             : :14
00:45:17.381                             : :15
00:48:51.178                             : :16
00:52:43.952                             : :17
00:56:36.101                             : :18
01:00:20.867                             : :19
01:03:36.896                             : :20
01:05:41.688                             : :21
01:10:42.697                             : :22
01:12:33.182                             : :23
01:16:53.818                             : :24
01:19:40.442                             : :25
01:23:02.769                             : :26
01:25:46.808                             : :27
01:29:55.265                             : :28
01:32:48.313                             : :29
01:34:26.244                             : :30
01:36:08.972                             : :31
01:37:40.188                             : :32
--Релиз группы:

Проверено на встроенном плейере ТВ LG 42LW4500
--
Остальные раздачи этого фильма (4)
Благодарности релизеру (37)

Торрент:

Статус:

Размер:

Зарегистрирован   [ 2013-11-30 13:30 ]

проверено

9.32 GB

 
 Мнение о фильме (45)

1, 2, 3  След.






Фильм просто ГОВНО, такой бред, подача ппц, больше на пародию похоже, да и уж явно для детей сделано, только даже им такое лучше не ставить!
 

фильм просмотрел бодро.3D слабое,сюжет на любителя и можно 1 раз посмотреть,в этом году себя заставил ,первый раз в жизни, посмотреть гари потера(дары смерти)еле досмотрел.перси джексона досмотрел легко(3д подкачало)
 

Не цепляет! Сюжет слишком банальный, поверхностный и плоский, такая обширная тема, а в итоге сделали "пфф"! События развиваются слишком быстро, у героев все слишком просто и легко! А злодеи это вообще отдельная тема, ЗАЧЕМ он все это мутил? захватить мир? поработить человечество? разнести вселенную в щепки?... Если просто насолить батьку, так отец всегда знает где он и чем занимается, ремня бы дал по заднице и все! Я понимаю что кино для детей, но есть уйма детских фильмов которые намного лучше этого!
Что касается 3Д эффектов, здесь все классно: неплохой объем, хорошие вылеты, интересно сделаны экшн сцены, много разных примочек такие как : брызги, искры, и прочее
 

DaimonAL, книги надо читать, что бы не спрашивать "зачем" и "почему".
 

Nartus ,
Ваш ребенок такого же мнения?
 

Фильм для детей среднего и младшего возраста.
 

Фильм интересный, можно посмотреть не только с пивом и чаем можно, з Д тоже в норме
 

интересный фильм(-фантазия), не жалею что посмотрел- мне понравилось
 

Спасибо за раздачу. Фильм не понравился.
 

хорошее фэнтези
 

смотрел в кинотеатре .3D ниачем..фильм на 1 раз.
 

3Д могло быть и лучше, финал с явным заделом на продолжение...вечер убить можно, но не более...
 

детям понравилось
 

Сказка для детей. Посмотреть можно только ради эффектов 3Д, 1 раз.
 
Алексей Вахляев Профиль 04-Дек-2013 08:39

Мне и детям очень понравилось. Ну сказка же, что вы хотите-то
 

Неплохая конвертация (заметно по растительности у воды - вода между листьями на глубине самих листьев а не на глубине остальной воды)
 

Шороший фильмец)))
 

Те кто пишут, что фильм слабый, видно ещё фиговых фильмов не смотрели.И 3D тоже на высоте.
 

Фильм мне не понравился, а за раздачу - Спасибо.
 

Смотрели семьёй — понравилось, но... пересматривать не буду ;)
 

Страница 1 из 3

1, 2, 3  След.