Торренты   
 
 

 

Джастин и рыцари доблести / Justin and the Knights of Valour (Мануэль Сисилия) [2013 г., Anamorph OverUnder]

Рейтинг 3D:
66 голосов
7.3
Рейтинг фильма:
65 голосов
7.6
 
Вы должны быть авторизированы,
чтобы ставить оценки


Джастин и рыцари доблести / Justin and the Knights of Valour
Год выпуска: 2013
Страна: Испания
Жанр: мультфильм, приключения
Продолжительность: 01:35:48
Перевод: Профессиональный (полное дублирование)
Режиссер: Мануэль Сисилия
В ролях: Фредди Хаймор, Сирша Ронан, Марк Стронг, Дэвид Уоллиамс, Антонио Бандерас, Альфред Молина, Джули Уолтерс, Оливия Уильямс, Чарльз Дэнс, Руперт Эверетт
Описание: Действие мультфильма разворачивается в магическом мире, о котором мечтает каждый ребёнок. Джастин мечтает стать рыцарем, но на его пути появляется много препятствий бюрократического характера. Даже отец Джастина против рыцарства и хочет, чтобы сын стал придворным служащим. Тогда мальчик, обуреваемый желанием стать настоящим доблестным Рыцарем, сбегает из дома в поисках приключений. По дороге он знакомится с прекрасной девушкой - Талией, вдохновляющей его на новые подвиги, и встречает мудрых рыцарей-наставников, которые обучают его рыцарскому мастерству. Но хватит ли Джастину полученных знаний для того, чтобы справиться с угрозой, которая нависла над его Королевством? Сумеет ли мальчик преодолеть все препятствия и достичь своей мечты?
Качество: BDrip
Контейнер: MKV
Формат 3D: Anamorph OverUnder / Вертикальная анаморфная стереопара
Видео кодек: x264
Аудио кодек: AC-3
Видео: AVC, High@L4.1, 1920х1080, 23,976 кадра/сек, 5376 Кбит/сек
Аудио:
#1 - Русский / AC3 / 48 KHz / 5.1 ch / 640 Kbps (Дубляж)
Субтитры: отсутствуют

Скриншоты

Media Info

Общее
Уникальный идентификатор : 227161057528418843463083021781930070965 (0xAAE5A0D790B70ECB9D14FCA0654BD3B5)
Полное имя : H:\Source\JustinAndTheKnightsOfValour.3D.2013.BD3DRip.Half.OU.x264.AC3.3D-RuGroup.mkv
Формат : Matroska
Версия формата : Version 4 / Version 2
Размер файла : 4,11 Гбайт
Продолжительность : 1 ч. 35 м.
Общий поток : 6138 Кбит/сек
Название фильма : Justin and the Knights of Valour 3D (2013) release 3D-RuGroup
Дата кодирования : UTC 2013-12-02 14:53:50
Программа кодирования : mkvmerge v6.3.0 ('You can't stop me!') built on Jul 19 2013 16:27:38
Библиотека кодирования : libebml v1.3.0 + libmatroska v1.4.1
Видео
Идентификатор : 1
Формат : AVC
Формат/Информация : Advanced Video Codec
Профиль формата : High@L4.1
Параметр CABAC формата : Да
Параметр ReFrames формата : 4 кадра
Идентификатор кодека : V_MPEG4/ISO/AVC
Продолжительность : 1 ч. 35 м.
Битрейт : 5376 Кбит/сек
Ширина : 1920 пикселей
Высота : 1080 пикселей
Соотношение сторон : 16:9
Режим частоты кадров : Постоянный
Частота кадров : 23,976 кадра/сек
Цветовое пространство : YUV
Субдискретизация насыщенности : 4:2:0
Битовая глубина : 8 бит
Тип развёртки : Прогрессивная
Бит/(Пиксели*Кадры) : 0.108
Размер потока : 3,60 Гбайт (88%)
Библиотека кодирования : x264 core 130 r2273 b3065e6
Настройки программы : cabac=1 / ref=4 / deblock=1:-3:-3 / analyse=0x3:0x133 / me=umh / subme=10 / psy=1 / psy_rd=1.00:0.15 / mixed_ref=1 / me_range=32 / chroma_me=1 / trellis=2 / 8x8dct=1 / cqm=0 / deadzone=21,11 / fast_pskip=0 / chroma_qp_offset=-3 / threads=12 / lookahead_threads=2 / sliced_threads=0 / nr=0 / decimate=1 / interlaced=0 / bluray_compat=0 / constrained_intra=0 / bframes=8 / b_pyramid=2 / b_adapt=2 / b_bias=0 / direct=3 / weightb=1 / open_gop=0 / weightp=2 / keyint=250 / keyint_min=23 / scenecut=40 / intra_refresh=0 / rc_lookahead=60 / rc=crf / mbtree=1 / crf=17.0 / qcomp=0.60 / qpmin=0 / qpmax=69 / qpstep=4 / vbv_maxrate=50000 / vbv_bufsize=62500 / crf_max=0.0 / nal_hrd=none / ip_ratio=1.40 / aq=1:0.90
Default : Да
Forced : Нет
Аудио
Идентификатор : 2
Формат : AC-3
Формат/Информация : Audio Coding 3
Расширение режима : CM (complete main)
Параметр Endianness формата : Big
Идентификатор кодека : A_AC3
Продолжительность : 1 ч. 35 м.
Вид битрейта : Постоянный
Битрейт : 640 Кбит/сек
Каналы : 6 каналов
Расположение каналов : Front: L C R, Side: L R, LFE
Частота : 48,0 КГц
Битовая глубина : 16 бит
Метод сжатия : С потерями
Размер потока : 439 Мбайт (10%)
Язык : Russian
Default : Да
Forced : Нет
Меню
00:00:00.000 : :01
00:15:15.289 : :02
00:28:01.513 : :03
00:48:51.387 : :04
01:06:21.644 : :05
01:25:22.868 : :06
--Релиз группы:

Проверено на встроенном плейере ТВ LG 42LW4500
--
Остальные раздачи этого фильма (4)
Благодарности релизеру (32)

Торрент:

Статус:

Размер:

Зарегистрирован   [ 2013-12-02 19:07 ]

проверено

4.11 GB

 
 Мнение о фильме (22)

1, 2  След.






мне всё понравилось, спасибо
 

Фанарь, с полосами на 42" объем не чувствуется...мульт тоже неоднозначный, местами зачет, местами...
 

Всё классно,спасибо!!!
 

По просьбе - Дорога DTS-HD MA для этого мульта (1875 kbps / 16-bit / 5.1ch) - http://yadi.sk/d/d5x6RbajDqBAJ
 

Большое спасибо.Все отлично.
 

и нам и детям понравилось, спасибо
 
Владиславчег Профиль 09-Дек-2013 22:11

И мне, и сыну очень даже понравилось, заслуженные - "девятки". Не знаю у кого как, а у меня на 47LM761T прекрасный объём, есть и "вылеты" (в основном мечи и пики).
P.S. Мультик и так прикольный... А если ещё смотреть его (как смотрел его я) 12 декабря, когда по всем программам (с утра до ночи) крутят передачи про наш, так называемый, "основной закон", то мультик смотрится намного забавней... :))
 

Фильм понравился. Спасибо!!!
 

То ли дети заелись, но не в восторге, а по мне так нормально
 

понравилось
 

ГОВНА КУСОК! НЕ КАЧАЙТЕ НЕ СМОТРИТЕ ЭТУ ВЕРСИЮ! НИ ЭФФЕКТА 3Д НИ ГЛУБИНЫ!!! ПРОСТО МУЛЬТ
 

фильм добрый ну вылетов нету 3д на нуле а так фильм норм
 

Мульт - класс, 3Д нормальное, где нужно - везде заметно, а то что вылетов нет, так не в них счастье.
 

По оценкам как-то так.
 

спасибо за раздачу мульт средний - смотреть можно. 3д тоже - средненькое
 

спс конечно релизеру за мульт,но я что то не пойму зачем такую работу по обрезанию полос проводить?ведь есть увеличение и масштабирование,помоему тоже самое получаеться?
 

хороший мультфильм.
 

Посмотрим...
 

хороший мультфильм.
 

спасибо фильм понравился
 

Страница 1 из 2

1, 2  След.