Торренты   
 
 


Сталинград (Фёдор Бондарчук) [2013 г., Anamorph OverUnder]

Рейтинг 3D:
2 голосов
6.5
Рейтинг фильма:
3 голосов
5.7
 
Вы должны быть авторизированы,
чтобы ставить оценки


Сталинград
Год выпуска: 2013
Страна: Россия
Жанр: военный, драма, боевик
Продолжительность: 135 мин. / 02:15
Перевод: Не требуется
Режиссер: Фёдор Бондарчук
В ролях: Мария Смольникова
Янина Студилина
Пётр Фёдоров
Томас Кречман
Сергей Бондарчук
Дмитрий Лысенков
Андрей Смоляков
Алексей Барабаш
Олег Волку
Хайнер Лаутербах
Описание: 1942-й год. Сталинград. Советские войска планируют контрнаступление на немецкие части, занявшие правый берег Волги. Наступление сорвано. Лишь разведчикам под командованием капитана Громова удается перебраться на другой берег и закрепиться в одном из домов. Им дан приказ удержать его любой ценой. Кроме нескольких чудом уцелевших советских солдат они находят в доме его последнюю жительницу — 19-летнюю Катю.
Приказ отбить дом, захваченный противником, получает немецкий офицер Кан. На фоне одного из самых кровопролитных сражений в истории человечества разворачиваются истории любви и драматического противостояния характеров.
Формат 3D: Anamorph OverUnder

Media Info

General
Unique ID : 187371579568697616982591530759681660878 (0x8CF6741DF0A7A8EB910F36762822D7CE)
Complete name : K:\3D Filmy\Сталинград 3Д (BDRip) Лицензия.mkv
Format : Matroska
File size : 8.71 GiB
Duration : 2h 10mn
Overall bit rate : 9 533 Kbps
Movie name : [torrent3d.ru]
Encoded date : UTC 2013-12-02 11:38:08
Writing application : mkvmerge v6.5.0 ('Isn't she lovely') built on Oct 20 2013 12:50:05
Writing library : libebml v1.3.0 + libmatroska v1.4.1
Video
ID : 1
Format : AVC
Format/Info : Advanced Video Codec
Format profile : High@L4.1
Format settings, CABAC : Yes
Format settings, ReFrames : 2 frames
Codec ID : V_MPEG4/ISO/AVC
Duration : 2h 10mn
Bit rate : 8 896 Kbps
Width : 1 920 pixels
Height : 788 pixels
Display aspect ratio : 2.40:1
Frame rate : 23.976 fps
Color space : YUV
Chroma subsampling : 4:2:0
Bit depth : 8 bits
Scan type : Progressive
Bits/(Pixel*Frame) : 0.245
Stream size : 8.13 GiB (93%)
Writing library : x264 core
Color primaries : BT.709-5, BT.1361, IEC 61966-2-4, SMPTE RP177
Transfer characteristics : BT.709-5, BT.1361
Matrix coefficients : BT.709-5, BT.1361, IEC 61966-2-4 709, SMPTE RP177
Audio
ID : 2
Format : AC-3
Format/Info : Audio Coding 3
Mode extension : CM (complete main)
Codec ID : A_AC3
Duration : 2h 10mn
Bit rate mode : Constant
Bit rate : 448 Kbps
Channel(s) : 6 channels
Channel positions : Front: L C R, Side: L R, LFE
Sampling rate : 48.0 KHz
Bit depth : 16 bits
Compression mode : Lossy
Stream size : 419 MiB (5%)
Благодарности релизеру (14)

Торрент:

Статус:

Размер:

Зарегистрирован   [ 2013-12-03 16:54 ]

поглощено

8.71 GB

 
Комментарии:





Это лицензия?
 

Случайно релизеру нажал профессиональная работа! Это ужасная оформление!
 

а где скрины? тех данные? а,то не известно какое качества.ждем нормальный рип.
 

через 10 минут будет нормальный рип, если что
 

А с нормального, нельзя было сразу начать? А то я уже больше часа качаю и никак не пойму - лоханулся или нет
 

Точно лоханулся, на другом рипе ужо несколько сидов появилось, а тут на 24 процентах закачка застряла. Большое спасибо, Александр!
 

Топик был перенесен из форума 3D Фильмы в форум Архив

Zagruzin