Торренты   
 
 

 

Сталинград (Фёдор Бондарчук) [2013 г., BDrip, Anamorph OverUnder]

Рейтинг 3D:
448 голосов
7.1
Рейтинг фильма:
451 голосов
6.2
 
Вы должны быть авторизированы,
чтобы ставить оценки


Название: Сталинград
Год выпуска: 2013
Страна: Россия
Жанр: военный, драма, боевик
Продолжительность: 02:10:48
Перевод: Не требуется
Режиссер: Фёдор Бондарчук
В ролях: Пётр Фёдоров, Томас Кречманн, Мария Смольникова, Яна Студилина, Дмитрий Лысенков, Алексей Барабаш, Андрей Смоляков, Сергей Бондарчук, Олег Волку, Хайнер Лаутербах, Олег Тилькин, Ян Кузьмин, Кирилл Варакса, Полина Райкина, Юрий Уткин, Олег Малышев
Описание: 1942-й год. Сталинград. Советские войска планируют контрнаступление на немецкие части, занявшие правый берег Волги. Наступление сорвано. Лишь разведчикам под командованием капитана Громова удается перебраться на другой берег и закрепиться в одном из домов. Им дан приказ удержать его любой ценой. Кроме нескольких чудом уцелевших советских солдат они находят в доме его последнюю жительницу — 19-летнюю Катю.
Приказ отбить дом, захваченный противником, получает немецкий офицер Кан. На фоне одного из самых кровопролитных сражений в истории человечества разворачиваются истории любви и драматического противостояния характеров.
Качество: BDrip
Контейнер: MKV
Формат 3D: Anamorph OverUnder / Вертикальная анаморфная стереопара
Видео кодек: x264
Аудио кодек: AC-3
Видео: AVC, High@L4.1, 1920х1080, 23,976 кадра/сек, 11,1 Мбит/сек
Аудио: Русский / AC3 / 48 KHz / 5.1 ch / 640 Kbps (Оригинал)
Субтитры: отсутствуют

Скриншоты

Media Info

Код:
Общее
Уникальный идентификатор                 : 242389444789072584530035374131918229321 (0xB65A824D513557AABDA98C0FA1414F49)
Полное имя                               : H:\Stalingrad.3D.2013.BD3DRip.Half.OU.x264.AC3.3D-RuGroup.mkv
Формат                                   : Matroska
Версия формата                           : Version 4 / Version 2
Размер файла                             : 10,9 Гбайт
Продолжительность                        : 2 ч. 10 м.
Общий поток                              : 12,0 Мбит/сек
Название фильма                          : Сталинград 3D (2013) release 3D-RuGroup
Дата кодирования                         : UTC 2013-12-03 13:43:27
Программа кодирования                    : mkvmerge v6.3.0 ('You can't stop me!') built on Jul 19 2013 16:27:38
Библиотека кодирования                   : libebml v1.3.0 + libmatroska v1.4.1
Видео
Идентификатор                            : 1
Формат                                   : AVC
Формат/Информация                        : Advanced Video Codec
Профиль формата                          : High@L4.1
Параметр CABAC формата                   : Да
Параметр ReFrames формата                : 4 кадра
Идентификатор кодека                     : V_MPEG4/ISO/AVC
Продолжительность                        : 2 ч. 10 м.
Битрейт                                  : 11,1 Мбит/сек
Ширина                                   : 1920 пикселей
Высота                                   : 1080 пикселей
Соотношение сторон                       : 16:9
Режим частоты кадров                     : Постоянный
Частота кадров                           : 23,976 кадра/сек
Цветовое пространство                    : YUV
Субдискретизация насыщенности            : 4:2:0
Битовая глубина                          : 8 бит
Тип развёртки                            : Прогрессивная
Бит/(Пиксели*Кадры)                      : 0.223
Размер потока                            : 10,1 Гбайт (93%)
Заголовок                                : rip by itsamna aka StarStranger
Библиотека кодирования                   : x264 core 130 r2273 b3065e6
Настройки программы                      : cabac=1 / ref=4 / deblock=1:-3:-3 / analyse=0x3:0x133 / me=umh / subme=10 / psy=1 / psy_rd=1.00:0.15 / mixed_ref=1 / me_range=32 / chroma_me=1 / trellis=2 / 8x8dct=1 / cqm=0 / deadzone=21,11 / fast_pskip=0 / chroma_qp_offset=-3 / threads=12 / lookahead_threads=2 / sliced_threads=0 / nr=0 / decimate=1 / interlaced=0 / bluray_compat=0 / constrained_intra=0 / bframes=8 / b_pyramid=2 / b_adapt=2 / b_bias=0 / direct=3 / weightb=1 / open_gop=0 / weightp=2 / keyint=250 / keyint_min=23 / scenecut=40 / intra_refresh=0 / rc_lookahead=60 / rc=crf / mbtree=1 / crf=15.5 / qcomp=0.60 / qpmin=0 / qpmax=69 / qpstep=4 / vbv_maxrate=50000 / vbv_bufsize=62500 / crf_max=0.0 / nal_hrd=none / ip_ratio=1.40 / aq=1:0.90
Default                                  : Да
Forced                                   : Нет
Аудио
Идентификатор                            : 2
Формат                                   : AC-3
Формат/Информация                        : Audio Coding 3
Расширение режима                        : CM (complete main)
Параметр Endianness формата              : Big
Идентификатор кодека                     : A_AC3
Продолжительность                        : 2 ч. 10 м.
Вид битрейта                             : Постоянный
Битрейт                                  : 640 Кбит/сек
Каналы                                   : 6 каналов
Расположение каналов                     : Front: L C R, Side: L R, LFE
Частота                                  : 48,0 КГц
Битовая глубина                          : 16 бит
Метод сжатия                             : С потерями
Размер потока                            : 599 Мбайт (5%)
Заголовок                                : Оригинал
Язык                                     : Russian
Default                                  : Да
Forced                                   : Нет
Меню
00:00:00.000                             : en:00:00:00.000
00:15:37.436                             : en:00:15:37.436
00:31:59.334                             : en:00:31:59.334
00:46:05.888                             : en:00:46:05.888
01:03:22.048                             : en:01:03:22.048
01:20:44.840                             : en:01:20:44.840
01:35:53.164                             : en:01:35:53.164
01:51:11.790                             : en:01:51:11.790
--Релиз группы:

За исходный диск спасибо:
--Проверено на встроенном плейере ТВ LG 42LW4500
Остальные раздачи этого фильма (4)
Благодарности релизеру (172)

Торрент:

Статус:

Размер:

Зарегистрирован   [ 2013-12-03 18:03 ]

проверено

10.93 GB

 
 Мнение о фильме (193)

Пред.  1, 2, 3, 4, 5, 6, 7, 8, 9, 10  След.






Я так ждал этот фильм и так обломался когда посмотрел.В общем фильм не понравился.Не понравился закадровый голос Бандарчука,под Михалкова похоже закосил.Пылающие солдаты вообще нечто.Казалось бы,с нынешними бюджетами и технологиями,такие фильмы можно делать.Я любитель фильмов о второй мировой.И мне кажется советские фильмы на эту тему были лучше,чем получился у Бандарчука.Вот такой вот Сталинград. =) Это чисто моё мнение,никому не навязываю...
 

Ожидал лучшего
 

3d не впечатлило. А про содержание лучше чем ГОБЛИН не скажешь.Просмотр на SAMSUNG UE46F8000 и UE32D6530.
 

Мне фильм понравился . Настоящая военная драма . Если не выискивать ляпы (а это не документальный фильм) оцениваю на 9 .
 

...имхо, кинокартина для домашнего просмотра, не более.
 

Фильм понравился.Чем-то напоминает немецкий фильм "Сталинград" 1992 года.В нем снимался Томас Кречман(капитан Кан),война показана без лишнего пафоса и идеологии.
 

Фильм полный бред.Пьеса в одном павильйоне с элементами стрельбы.Лучше посмотреть трейлер Call of Duty.Для эффекта 3д весь фильм летает как бы пепел,а на всех стенах как бы снег.Зря потраченого времени.
 

mbm70, Что за хрень вы написали???
 

Фильм мне понравился .
 

Стереоэффект в фильме хороший, очень естественный, объекты (люди и предметы) достаточно весомые. Видно что снято с оглядкой на отечественный опыт - т.е. не злоупотребляли шириной стетеобазы (компютерные эффекты не в счет - там больше рисование чем съемка) смотрелось комфортно!!!!!! Но зевал от сюжета...... : затянуто замедленно.... надуманно..... приукрашено....
 

Ценителям, увидавшим "настоящую военную драму" посвящается:
http://www.rg.ru/2013/10/25/stalingrad.html
 

фильм понравился, 3д нормальное советую смотреть!
 

Посмотрел сразу после скачивания. По качеству фильма- отлично. по содержанию- отторжения не вызвал. Просто чем дальше от войны и чем меньше людей которые довольно крепко были с ней связаны ( не говоря об участниках, реальных), хотя и родились после войны - тем больше появляется фантазий на эту тему. Для меня один из правдивых фильмов о Войне - "Иди и смотри", из литературы -"Ванька ротный", неопубликованные рукописи. Но раздачу надо убрать - злобные гоблины могут наехать.
 

Спасибо за раздачу! Фильм понравился, 3Д хорошее.
 

Отснят красиво, от сюжета ожидала чего-то другого, именно про военные действия, мужу не понравился, как выше уже писали фильм, скорее, про любовь, чем про войну. Все равно спасибо, качество фильма отличное, в кино не попала, а "оскароносный" фильм посмотреть хотелось.
 

Фильм впечатлил,тронул за душу!Всё понравилось и сюжет,прежде всего и конечно же эффект 3д.И естесственно спасибо за оперативность!
 

Фильм понравился 3d эфект норма - спасибо сайту и раздающему !!!
 

Исполнение автором рипа отличное! Большое спасибо!!!
 

фИЛЬМ КЛАСС! КАЧЕСТВО ОТЛИЧНОЕ. с\СПАСИБО ЗА ТРУД!
 

в целом фильм не плох но конечно сцена с горящими советскими солдатами это уже перебор дядя федор наверное у америкосов взял хотя у рядового райна токого нет а так не плохо 3D конечно без вылето но глубина хороша в общем смотрибельно за раздачу спс
 

Страница 4 из 10

Пред.  1, 2, 3, 4, 5, 6, 7, 8, 9, 10  След.