Торренты   
 
 

 

Спасти Санту / Saving Santa (Леон Джусен, Аарон Силман) [2013 г., Anamorph SideBySide]

Рейтинг 3D:
12 голосов
3.3
Рейтинг фильма:
12 голосов
6.4
 
Вы должны быть авторизированы,
чтобы ставить оценки


Спасти Санту / Saving Santa
Год выпуска: 2013
Страна: Великобритания, США
Жанр: мультфильм, семейный
Продолжительность: 83 мин. / 01:23
Перевод: Профессиональный (полное дублирование)
Режиссер: Леон Джусен, Аарон Силман
В ролях: Тим Конуэй
Пэм Феррис
Джоан Коллинз
Тим Карри
Описание: Эльф Бернард — очень мил, весел, и… слегка несерьёзен. Но ему придется измениться, ведь у него впереди потрясающее и очень опасное приключение! Кто-то собирается похитить Санту и его волшебные сани, в которых можно перемещаться в разные эпохи. А без Санты Новый год никогда не наступит! Бернарду придётся переместиться во времени, сразиться со злодеем, остановить его армию, изменить прошлое, спасти Новый год и стать настоящим героем!
Доп. информация: рейтинг IMDb: 5.3
Формат 3D: Anamoprph SideBySide
Видео: 1920x1040 BDRip
Аудио: Dolby AC3 48000Hz stereo

Для оценки 3Д - анимированые скрины от Ash61






Media Info

General
Unique ID : 238780896085075767685268451019786785280 (0xB3A3871D5CCDD243B9C2D263D4EF9200)
Complete name : D:\Спасти Санту 3Д.mkv
Format : Matroska
File size : 3.48 GiB
Duration : 1h 23mn
Overall bit rate : 5 940 Kbps
Encoded date : UTC 2013-12-01 01:54:27
Writing application : mkvmerge v6.4.1 ('Omega Point') built on Sep 16 2013 22:05:10
Writing library : libebml v1.3.0 + libmatroska v1.4.1
Video
ID : 1
Format : AVC
Format/Info : Advanced Video Codec
Format profile : High@L4.1
Format settings, CABAC : Yes
Format settings, ReFrames : 4 frames
Codec ID : V_MPEG4/ISO/AVC
Duration : 1h 23mn
Bit rate : 4 120 Kbps
Width : 1 920 pixels
Height : 1 040 pixels
Display aspect ratio : 16:9
Frame rate : 23.976 fps
Color space : YUV
Chroma subsampling : 4:2:0
Bit depth : 8 bits
Scan type : Progressive
Bits/(Pixel*Frame) : 0.086
Stream size : 2.41 GiB (69%)
Writing library : x264 core 140 r2377 1ca7bb9
Encoding settings : cabac=1 / ref=4 / deblock=1:-1:-1 / analyse=0x3:0x133 / me=umh / subme=7 / psy=1 / psy_rd=1.00:0.15 / mixed_ref=1 / me_range=16 / chroma_me=1 / trellis=1 / 8x8dct=1 / cqm=0 / deadzone=21,11 / fast_pskip=0 / chroma_qp_offset=-3 / threads=12 / lookahead_threads=2 / sliced_threads=0 / nr=0 / decimate=1 / interlaced=0 / bluray_compat=0 / constrained_intra=0 / bframes=3 / b_pyramid=2 / b_adapt=1 / b_bias=0 / direct=3 / weightb=1 / open_gop=0 / weightp=2 / keyint=240 / keyint_min=23 / scenecut=40 / intra_refresh=0 / rc_lookahead=40 / rc=crf / mbtree=1 / crf=20.0 / qcomp=0.60 / qpmin=10 / qpmax=69 / qpstep=4 / ip_ratio=1.40 / aq=1:1.00
Language : English
Audio #1
ID : 2
Format : AC-3
Format/Info : Audio Coding 3
Mode extension : CM (complete main)
Codec ID : A_AC3
Duration : 1h 23mn
Bit rate mode : Constant
Bit rate : 192 Kbps
Channel(s) : 2 channels
Channel positions : Front: L R
Sampling rate : 48.0 KHz
Bit depth : 16 bits
Compression mode : Lossy
Stream size : 115 MiB (3%)
Language : Russian
Audio #2
ID : 3
Format : DTS
Format/Info : Digital Theater Systems
Codec ID : A_DTS
Duration : 1h 23mn
Bit rate mode : Constant
Bit rate : 1 510 Kbps
Channel(s) : 6 channels
Channel positions : Front: L C R, Side: L R, LFE
Sampling rate : 48.0 KHz
Bit depth : 16 bits
Compression mode : Lossy
Stream size : 906 MiB (25%)
Language : English
Menu
00:00:00.000 : en:00:00:00.000
00:09:08.381 : en:00:09:08.381
00:15:11.118 : en:00:15:11.118
00:22:06.700 : en:00:22:06.700
00:29:23.428 : en:00:29:23.428
00:39:12.308 : en:00:39:12.308
00:47:16.667 : en:00:47:16.667
00:54:38.525 : en:00:54:38.525
01:03:50.618 : en:01:03:50.618
01:10:20.174 : en:01:10:20.174
01:16:39.761 : en:01:16:39.761
01:19:49.784 : en:01:19:49.784
Благодарности релизеру (18)

Торрент:

Статус:

Размер:

Зарегистрирован   [ 2013-12-03 20:38 ]

проверено

3.48 GB

 
 Мнение о фильме (19)





со скринами пока небольшие проблемы прошу прощения!
 

Перезалейте пожалуйста!
 
Валерий Никитенко Профиль 03-Дек-2013 23:02

Возникли небольшие проблемы с интернетом к вечеру обещали исправить !
 

Мультик по попрежднему не качается!
 
Валерий Никитенко Профиль 04-Дек-2013 12:46

Aleksandr-55, Может лучше выложить первоисточник, а дальше я разберусь.
 
Валерий Никитенко Профиль 04-Дек-2013 13:22

Для оценки 3Д - анимированые скрины






 

2D-3D конвертация компьютерной 3Д графики - это 1) верх идиотизма или 2) фейк.
ПС: В кинотеатрах в 3Д он идет, значит 1) :) или 3) экономия и халтура.
 

Zagruzin, ИМХО - дешёвая студийная (но "лицензионная") конвертация (в последнее время уже не первая).
 

ash61, В мультфильмах на комп. графике вроде редкость, кроме "Белки и Стрелки" не припомню, ладно бы рисованный, там уже ни как без конвертации.
 

Спасибо Ash61 за скрины!
 

Zagruzin, да вот пару дней назад тоже пришлось выложить анимацию на "соседнем" трекере на Призрак в доспехах: Синдром одиночки 3D. 3Д-конвертация аналогичная:

Анимация

Правда там рисованый мульт (но всё равно странно).
 

ash61, Да, схожий почерк.
 

Zagruzin, ash61, уважаемые, можно ли вас попросить об одолжении: интуитивно я понимаю, что эту раздачу скачивать не стоит (проблема не столько в том, что скачивать неохота, а в том, что мало времени имеется, чтобы нормально в комфорте посмотреть скачанное :). Для чайников (т.е. для меня и иже со мной) просто напишите - это г...но, и не стоит его качать (шучу, конечно, вы выражаетесь гораздо корректней :), но, самое главное, далее обозначьте, пожалуйста, когда или где можно будет скачать качественный продукт.
 

is3000, Кач-ный продукт есть и на этом сайте,и "вокруг". А об этом конкретном - скачано 2,5гига,роздано 6,5.. "Голодных" в 3 раза больше,чем тарелок ! И,похоже не деликатес...
 

для внука всамый раз спасибо
 

Проще в 2Д посмотреть и не ломать глаза.
 

По мне так 3д нормальное,но сам мульт ребёнку не очень понравился.
 

3Д не очень =( мульт досмотреть не смог =(
 

День сурка. Восторга нет.