Торренты   
 
 

 

Джастин и рыцари доблести / Justin and the Knights of Valour (Мануэль Сисилия) [2013 г., мультфильм, приключения, BDRip 1080p] Anamorph SideBySide

Рейтинг 3D:
66 голосов
7.3
Рейтинг фильма:
65 голосов
7.6
 
Вы должны быть авторизированы,
чтобы ставить оценки


Джастин и рыцари доблести / Justin and the Knights of Valour
Год выпуска: 2013
Страна: Испания
Жанр: мультфильм, приключения,
Продолжительность: 01:35:48
Перевод: Дубляж
Режиссер: Мануэль Сисилия
Продюссер: Марселино Алманса, Антонио Бандерас, Ральф Кэмп
Сценарий: Мэттью Джейкобс, Мануэль Сисилия
Бюджет: $28 000 000
Премьера в мире: 12 сентября 2013

В ролях: Фредди Хаймор, Сирша Ронан, Марк Стронг, Дэвид Уоллиамс, Антонио Бандерас, Альфред Молина, Джули Уолтерс, Оливия Уильямс, Чарльз Дэнс, Руперт Эверетт,
Описание: Действие мультфильма разворачивается в магическом мире, о котором мечтает каждый ребёнок. Джастин мечтает стать рыцарем, но на его пути появляется много препятствий бюрократического характера. Даже отец Джастина против рыцарства и хочет, чтобы сын стал придворным служащим. Тогда мальчик, обуреваемый желанием стать настоящим доблестным Рыцарем, сбегает из дома в поисках приключений. По дороге он знакомится с прекрасной девушкой - Талией, вдохновляющей его на новые подвиги, и встречает мудрых рыцарей-наставников, которые обучают его рыцарскому мастерству. Но хватит ли Джастину полученных знаний для того, чтобы справиться с угрозой, которая нависла над его Королевством? Сумеет ли мальчик преодолеть все препятствия и достичь своей мечты?
Доп. информация: Формат 3D: Anamorph SideBySide / Горизонтальная анаморфная стереопара
Порядок ракурсов: левый ракурс первый
Качество: BDRip 1080p
Формат: MKV
Видео кодек: H.264
Аудио кодек: AC3
Видео: x264 / 23,976 fps / 1920 x 1080 (16:9) / 7298 Kbps / 0.147 bit/pixel
Аудио#1: AC3 / 48 KHz / 5.1 ch / 448 kbps / (Дубляж - BD 3D Rus)Rip - Заменил на более качественный. Простите за неудобства.

Скриншоты




MediaInfo

Общее
Уникальный идентификатор : 248390669191761468926424692579410538117 (0xBADE4D825A61B622BB1EBCF307BA6E85)
Полное имя : D:Justin.And.The.Knights.Of.Valour(2013)3D-HSBS.mkv
Формат : Matroska
Версия формата : Version 4 / Version 2
Размер файла : 5,29 Гбайт
Продолжительность : 1 ч. 35 м.
Общий поток : 7903 Кбит/сек
Название фильма : Джастин и рыцари доблести / Justin and the Knights of Valour (2013) 3D HSBS
Дата кодирования : UTC 2013-12-08 10:54:09
Программа кодирования : mkvmerge v6.2.0 ('Promised Land') built on Apr 28 2013 12:22:01
Библиотека кодирования : libebml v1.3.0 + libmatroska v1.4.0
Видео
Идентификатор : 1
Формат : AVC
Формат/Информация : Advanced Video Codec
Профиль формата : High@L5.1
Параметр CABAC формата : Да
Параметр ReFrames формата : 2 кадра
Идентификатор кодека : V_MPEG4/ISO/AVC
Продолжительность : 1 ч. 35 м.
Битрейт : 7298 Кбит/сек
Ширина : 1920 пикселей
Высота : 1080 пикселей
Соотношение сторон : 16:9
Режим частоты кадров : Постоянный
Частота кадров : 23,976 кадра/сек
Цветовое пространство : YUV
Субдискретизация насыщенности : 4:2:0
Битовая глубина : 8 бит
Тип развёртки : Прогрессивная
Бит/(Пиксели*Кадры) : 0.147
Размер потока : 4,88 Гбайт (92%)
Заголовок : JustinAndTheKnightsOfValour(2013)3D-HSBS.mkv
Библиотека кодирования : x264 core
Default : Да
Forced : Нет
Основные цвета : BT.709
Характеристики трансфера : BT.709
Коэффициенты матрицы : BT.709
Аудио
Идентификатор : 2
Формат : AC-3
Формат/Информация : Audio Coding 3
Расширение режима : CM (complete main)
Параметр Endianness формата : Big
Идентификатор кодека : A_AC3
Продолжительность : 1 ч. 35 м.
Вид битрейта : Постоянный
Битрейт : 448 Кбит/сек
Каналы : 6 каналов
Расположение каналов : Front: L C R, Side: L R, LFE
Частота : 48,0 КГц
Битовая глубина : 16 бит
Метод сжатия : С потерями
Размер потока : 307 Мбайт (6%)
Заголовок : Дубляж - BD 3D Rus
Язык : Russian
Default : Да
Forced : Нет
Меню
00:00:00.000 : en:(01)00:00:00:000
00:15:15.289 : en:(02)00:15:15:289
00:28:01.513 : en:(03)00:28:01:513
00:48:51.386 : en:(04)00:48:51:386
01:06:21.644 : en:(05)01:06:21:644
01:25:22.867 : en:(06)01:25:22:867
01:35:48.033 : en:(07)01:35:48:033
Остальные раздачи этого фильма (4)
Благодарности релизеру (8)

Торрент:

Статус:

Размер:

Зарегистрирован   [ 2013-12-08 15:20 ]

проверено

5.29 GB

 
 Мнение о фильме (22)

1, 2  След.






мне всё понравилось, спасибо
 

Фанарь, с полосами на 42" объем не чувствуется...мульт тоже неоднозначный, местами зачет, местами...
 

Всё классно,спасибо!!!
 

По просьбе - Дорога DTS-HD MA для этого мульта (1875 kbps / 16-bit / 5.1ch) - http://yadi.sk/d/d5x6RbajDqBAJ
 

Большое спасибо.Все отлично.
 

и нам и детям понравилось, спасибо
 
Владиславчег Профиль 09-Дек-2013 22:11

И мне, и сыну очень даже понравилось, заслуженные - "девятки". Не знаю у кого как, а у меня на 47LM761T прекрасный объём, есть и "вылеты" (в основном мечи и пики).
P.S. Мультик и так прикольный... А если ещё смотреть его (как смотрел его я) 12 декабря, когда по всем программам (с утра до ночи) крутят передачи про наш, так называемый, "основной закон", то мультик смотрится намного забавней... :))
 

Фильм понравился. Спасибо!!!
 

То ли дети заелись, но не в восторге, а по мне так нормально
 

понравилось
 

ГОВНА КУСОК! НЕ КАЧАЙТЕ НЕ СМОТРИТЕ ЭТУ ВЕРСИЮ! НИ ЭФФЕКТА 3Д НИ ГЛУБИНЫ!!! ПРОСТО МУЛЬТ
 

фильм добрый ну вылетов нету 3д на нуле а так фильм норм
 

Мульт - класс, 3Д нормальное, где нужно - везде заметно, а то что вылетов нет, так не в них счастье.
 

По оценкам как-то так.
 

спасибо за раздачу мульт средний - смотреть можно. 3д тоже - средненькое
 

спс конечно релизеру за мульт,но я что то не пойму зачем такую работу по обрезанию полос проводить?ведь есть увеличение и масштабирование,помоему тоже самое получаеться?
 

хороший мультфильм.
 

Посмотрим...
 

хороший мультфильм.
 

спасибо фильм понравился
 

Страница 1 из 2

1, 2  След.