Торренты   
 
 

 

Турбо / Turbo (Дэвид Сорен) [2013 г., мультфильм, комедия, BDRip 1080p] Anamorph SideBySide

Рейтинг 3D:
194 голосов
8.3
Рейтинг фильма:
193 голосов
8.1
 
Вы должны быть авторизированы,
чтобы ставить оценки


Турбо / Turbo
Год выпуска: 2013
Страна: США
Жанр: мультфильм, комедия, приключения, семейный, спорт,
Продолжительность: 01:35:41
Перевод: Дубляж
Субтитры: Русские, Украинские
Режиссер: Дэвид Сорен
Продюссер: Лиза Стюарт, Сьюзэн Слэгли Роджерс
Сценарий: Даррен Лемке, Роберт Д. Сигел, Дэвид Сорен
Бюджет: $135 000 000
Премьера в мире: 17 июля 2013

Роли озвучивали: Райан Рейнольдс, Пол Джаматти, Майкл Пенья, Снуп Догг, Майя Рудольф, Мишель Родригес, Сэмюэл Л. Джексон, Луис Гусман, Билл Хейдер, Бен Шварц
Роли дублировали: Тимур Родригез, Саймон, Юлия Морозова, Станислав Концевич, Олег Куликович,
Описание: Ничто так не раздражает темпераментную, мечтающую о скорости улитку с говорящим именем Турбо, как неспешная жизнь, медленные разговоры, заторможенные соседи. Пусть наш герой выглядит большим чудаком в этом вялом, неторопливом мире, пусть он идёт вопреки закону природы о «рождённом ползать», но если в сердце горит «пламенный мотор», а душа верит в чудо, оно просто не имеет права не произойти!
Доп. информация: Формат 3D: Anamorph SideBySide / Горизонтальная анаморфная стереопара
Порядок ракурсов: левый ракурс первый
Качество: BDRip 1080p
Формат: MKV
Видео кодек: H.264
Аудио кодек: AC3
Видео: x264 L4.1, 1920 x 1080, (16:9) 23,976 fps, 9185 Kbps, (0.185 bit/pixel)
Аудио#1: Русский / AC3 / 48 KHz / 5.1 ch / 640 Kbps (Дубляж - BD3D EUR)
Аудио#2: Украинский / AC3 / 48 KHz / 5.1 ch / 448 Kbps (Дубляж - BD3D EUR)
Аудио#3: Английский / AC3 / 48 KHz / 5.1 ch / 640 Kbps (Original - BD3D EUR)

Скриншоты

MediaInfo

Общее
Уникальный идентификатор : 236307221553396410111691129464663332699 (0xB1C71D8B472A776B9CD91F7FAFAC575B)
Полное имя : D:Turbo.3D.(2013).1080p.BluRay.Half-SBS.mkv
Формат : Matroska
Версия формата : Version 4 / Version 2
Размер файла : 7,45 Гбайт
Продолжительность : 1 ч. 35 м.
Общий поток : 11,1 Мбит/сек
Название фильма : Турбо / Turbo (2013) BDRip 1080p / 3D / HSBS
Дата кодирования : UTC 2013-12-06 17:52:23
Программа кодирования : mkvmerge v6.2.0 ('Promised Land') built on Apr 28 2013 12:22:01
Библиотека кодирования : libebml v1.3.0 + libmatroska v1.4.0
Видео
Идентификатор : 1
Формат : AVC
Формат/Информация : Advanced Video Codec
Профиль формата : High@L4.1
MultiView_Count : 2
MultiView_Layout : Side by Side (left eye first)
Параметр CABAC формата : Да
Параметр ReFrames формата : 4 кадра
Идентификатор кодека : V_MPEG4/ISO/AVC
Продолжительность : 1 ч. 35 м.
Битрейт : 9185 Кбит/сек
Ширина : 1920 пикселей
Высота : 1080 пикселей
Соотношение сторон : 16:9
Режим частоты кадров : Постоянный
Частота кадров : 23,976 кадра/сек
Цветовое пространство : YUV
Субдискретизация насыщенности : 4:2:0
Битовая глубина : 8 бит
Тип развёртки : Прогрессивная
Бит/(Пиксели*Кадры) : 0.185
Размер потока : 6,14 Гбайт (82%)
Заголовок : Turbo 3D (2013) 1080p BluRay Half-SBS.x264.mkv
Язык : English
Default : Да
Forced : Нет
Аудио #1
Идентификатор : 2
Формат : AC-3
Формат/Информация : Audio Coding 3
Расширение режима : CM (complete main)
Параметр Endianness формата : Big
Идентификатор кодека : A_AC3
Продолжительность : 1 ч. 35 м.
Вид битрейта : Постоянный
Битрейт : 640 Кбит/сек
Каналы : 6 каналов
Расположение каналов : Front: L C R, Side: L R, LFE
Частота : 48,0 КГц
Битовая глубина : 16 бит
Метод сжатия : С потерями
Размер потока : 438 Мбайт (6%)
Заголовок : Дубляж - BD3D EUR
Язык : Russian
Default : Да
Forced : Нет
Аудио #2
Идентификатор : 3
Формат : AC-3
Формат/Информация : Audio Coding 3
Расширение режима : CM (complete main)
Параметр Endianness формата : Big
Идентификатор кодека : A_AC3
Продолжительность : 1 ч. 35 м.
Вид битрейта : Постоянный
Битрейт : 448 Кбит/сек
Каналы : 6 каналов
Расположение каналов : Front: L C R, Side: L R, LFE
Частота : 48,0 КГц
Битовая глубина : 16 бит
Метод сжатия : С потерями
Размер потока : 307 Мбайт (4%)
Заголовок : Дубляж - BD3D EUR
Язык : Ukrainian
Default : Нет
Forced : Нет
Аудио #3
Идентификатор : 4
Формат : AC-3
Формат/Информация : Audio Coding 3
Расширение режима : CM (complete main)
Параметр Endianness формата : Big
Идентификатор кодека : A_AC3
Продолжительность : 1 ч. 35 м.
Вид битрейта : Постоянный
Битрейт : 640 Кбит/сек
Каналы : 6 каналов
Расположение каналов : Front: L C R, Side: L R, LFE
Частота : 48,0 КГц
Битовая глубина : 16 бит
Метод сжатия : С потерями
Размер потока : 438 Мбайт (6%)
Заголовок : Original - BD3D EUR
Язык : English
Default : Нет
Forced : Нет
Текст #1
Идентификатор : 5
Формат : UTF-8
Идентификатор кодека : S_TEXT/UTF8
Идентификатор кодека/Информация : UTF-8 Plain Text
Заголовок : Форсированные
Язык : Russian
Default : Да
Forced : Нет
Текст #2
Идентификатор : 6
Формат : UTF-8
Идентификатор кодека : S_TEXT/UTF8
Идентификатор кодека/Информация : UTF-8 Plain Text
Заголовок : Форсированные
Язык : Ukrainian
Default : Нет
Forced : Нет
Меню
00:00:00.000 : en:00:00:00.000
00:04:41.990 : en:00:04:41.990
00:07:23.234 : en:00:07:23.234
00:09:04.294 : en:00:09:04.294
00:14:38.085 : en:00:14:38.085
00:17:30.549 : en:00:17:30.549
00:24:58.872 : en:00:24:58.872
00:30:10.767 : en:00:30:10.767
00:36:28.186 : en:00:36:28.186
00:40:37.518 : en:00:40:37.518
00:42:51.193 : en:00:42:51.193
00:48:07.801 : en:00:48:07.801
00:51:37.802 : en:00:51:37.802
00:56:22.378 : en:00:56:22.378
01:00:06.144 : en:01:00:06.144
01:01:59.924 : en:01:01:59.924
01:07:05.312 : en:01:07:05.312
01:10:13.041 : en:01:10:13.041
01:12:27.134 : en:01:12:27.134
01:16:26.915 : en:01:16:26.915
Остальные раздачи этого фильма (4)
Благодарности релизеру (13)

Торрент:

Статус:

Размер:

Зарегистрирован   [ 2013-12-08 15:40 ]

проверено

7.45 GB

 
 Мнение о фильме (64)

1, 2, 3, 4  След.






Спасибо!!!!Хороший мульт,забавный!!!!
 

Все отлично.Тут и мультфильм хороший и 3D оставило свой след и вылеты есть. Понравилось качество изображения.
 

Хороший детский мультфильм с вылетами ! Спасибо !
 
евгения мурашко Профиль 02-Ноя-2013 03:59

Большое спасибо. Очень хороший мульт.
 
Виталий Цыганов Профиль 02-Ноя-2013 12:38

Отличный мульт,3d нормальное
 

Мультик хороший. Большое спасибо
 

Прекрасный мультик, отличное 3D, отличное исполнение рипа. Спасибо огромное!!!
 

Отлично сделан рип, 3D очень понравилось, добавил
литовскую звуковую дорожку,внучки в восторге.
Спасибо огромное!
 

Отично!!!
 

Прикольный мультик,всем понравился. Смотрим ещё раз.
 

Спасибо!!!Очень понравилось особенно дочке.
 
евгений 2012 Профиль 04-Ноя-2013 08:28

МУЛЬТ ПРОСТО ШИКАРНЫЙ 3Д НА ВЫСОТЕ!!!СЮЖЕТ БОМБИСИМО!
 

Я в восторге от этого мультика, да и ребенок рад, 3Д на высоте все замечательно. 5 баллов !!!
 

Конкретный мульт ,спасибо всем!!!!
 
евгений 2012 Профиль 05-Ноя-2013 21:27

Хороший мультфильм. 3Д в норме.
 
Алексей Вахляев Профиль 06-Ноя-2013 09:00

релизеру большое спасибо! сюжет, типа, "вторых" тачек - не очень. 3д - хорошее
 

Хороший мультфильм. 3Д в норме.
 

спс все норм
 

лицезрел мульт в театре, оч. понравился, терь дома позыркаю)))
 

Спасибо! С удовольствием посмотрели- оставляю в коллекции.
 

Страница 1 из 4

1, 2, 3, 4  След.