Торренты   
 
 


Хищник / Predator (Джон МакТирнан) [1987 г., Anamorph OverUnder]

Рейтинг 3D:
134 голосов
6.3
Рейтинг фильма:
150 голосов
7.9
 
Вы должны быть авторизированы,
чтобы ставить оценки



Хищник / Predator
Год выпуска: 1987
Страна: США
Жанр: фантастика, боевик, приключения
Продолжительность: 01:46:32
Перевод: Профессиональный (полное дублирование)
Режиссер: Джон МакТирнан
В ролях: рнольд Шварценеггер, Карл Уэзерс, Элпидия Каррильо, Билл Дьюк, Джесси Вентура, Сонни Лэндэм, Ричард Чавес, Р.Г. Армстронг, Шейн Блэк, Кевин Питер Холл
Описание: Американский вертолет был сбит партизанами в Южной Америке. Оставшийся в живых экипаж находится в плену. Центральное разведывательное управление США бросает свои лучшие силы для освобождения американских граждан.
Элитная группа спецназа во главе с Датчем была заброшена в южноамериканские джунгли.
Качество: BDrip
Контейнер: MKV
Формат 3D: Anamorph OverUnder / Вертикальная анаморфная стереопара
Видео кодек: x264
Аудио кодек: AC-3
Видео: AVC, High@L4.1, 1920х1080, 23,976 кадра/сек, 11 Мбит/сек
Аудио:
#1 - Русский / AC3 / 48 KHz / 5.1 ch / 640 Kbps (Дубляж - BD 3D)
#2 - Английский / AC3 / 48 KHz / 5.1 ch / 640 Kbps
Субтитры: русские, английские

Скриншоты

Media Info

Общее
Уникальный идентификатор : 247222380161698949166494653597009052198 (0xB9FD4C69AF1B9D228A64FCDE14900226)
Полное имя : H:\Predator.3D.1987.BDrip.Half.OU.x264.AC3.(itsamna).mkv
Формат : Matroska
Версия формата : Version 4 / Version 2
Размер файла : 9,33 Гбайт
Продолжительность : 1 ч. 46 м.
Общий поток : 12,5 Мбит/сек
Название фильма : Predator 3D rip by itsamna
Дата кодирования : UTC 2013-12-11 17:28:52
Программа кодирования : mkvmerge v6.3.0 ('You can't stop me!') built on Jul 19 2013 16:27:38
Библиотека кодирования : libebml v1.3.0 + libmatroska v1.4.1
Видео
Идентификатор : 1
Формат : AVC
Формат/Информация : Advanced Video Codec
Профиль формата : High@L4.1
Параметр CABAC формата : Да
Параметр ReFrames формата : 4 кадра
Идентификатор кодека : V_MPEG4/ISO/AVC
Продолжительность : 1 ч. 46 м.
Битрейт : 11,0 Мбит/сек
Ширина : 1920 пикселей
Высота : 1080 пикселей
Соотношение сторон : 16:9
Режим частоты кадров : Постоянный
Частота кадров : 23,976 кадра/сек
Цветовое пространство : YUV
Субдискретизация насыщенности : 4:2:0
Битовая глубина : 8 бит
Тип развёртки : Прогрессивная
Бит/(Пиксели*Кадры) : 0.221
Размер потока : 8,19 Гбайт (88%)
Библиотека кодирования : x264 core 130 r2273 b3065e6
Настройки программы : cabac=1 / ref=4 / deblock=1:-3:-3 / analyse=0x3:0x133 / me=umh / subme=10 / psy=1 / psy_rd=1.05:0.15 / mixed_ref=1 / me_range=32 / chroma_me=1 / trellis=2 / 8x8dct=1 / cqm=0 / deadzone=21,11 / fast_pskip=0 / chroma_qp_offset=-3 / threads=12 / lookahead_threads=2 / sliced_threads=0 / nr=0 / decimate=1 / interlaced=0 / bluray_compat=0 / constrained_intra=0 / bframes=7 / b_pyramid=2 / b_adapt=2 / b_bias=0 / direct=3 / weightb=1 / open_gop=0 / weightp=2 / keyint=250 / keyint_min=23 / scenecut=40 / intra_refresh=0 / rc_lookahead=60 / rc=crf / mbtree=1 / crf=17.0 / qcomp=0.60 / qpmin=0 / qpmax=69 / qpstep=4 / vbv_maxrate=50000 / vbv_bufsize=62500 / crf_max=0.0 / nal_hrd=none / ip_ratio=1.40 / aq=1:0.90
Default : Да
Forced : Нет
Аудио #1
Идентификатор : 2
Формат : AC-3
Формат/Информация : Audio Coding 3
Расширение режима : CM (complete main)
Параметр Endianness формата : Big
Идентификатор кодека : A_AC3
Продолжительность : 1 ч. 46 м.
Вид битрейта : Постоянный
Битрейт : 640 Кбит/сек
Каналы : 6 каналов
Расположение каналов : Front: L C R, Side: L R, LFE
Частота : 48,0 КГц
Битовая глубина : 16 бит
Метод сжатия : С потерями
Размер потока : 488 Мбайт (5%)
Язык : Russian
Default : Да
Forced : Нет
Аудио #2
Идентификатор : 3
Формат : AC-3
Формат/Информация : Audio Coding 3
Расширение режима : CM (complete main)
Параметр Endianness формата : Big
Идентификатор кодека : A_AC3
Продолжительность : 1 ч. 46 м.
Вид битрейта : Постоянный
Битрейт : 640 Кбит/сек
Каналы : 6 каналов
Расположение каналов : Front: L C R, Side: L R, LFE
Частота : 48,0 КГц
Битовая глубина : 16 бит
Метод сжатия : С потерями
Размер потока : 488 Мбайт (5%)
Язык : English
Default : Нет
Forced : Нет
Текст #1
Идентификатор : 4
Формат : UTF-8
Идентификатор кодека : S_TEXT/UTF8
Идентификатор кодека/Информация : UTF-8 Plain Text
Язык : Russian
Default : Нет
Forced : Нет
Текст #2
Идентификатор : 5
Формат : UTF-8
Идентификатор кодека : S_TEXT/UTF8
Идентификатор кодека/Информация : UTF-8 Plain Text
Язык : English
Default : Нет
Forced : Нет
Меню
00:00:00.000 : :01
00:04:03.285 : :02
00:06:28.638 : :03
00:10:31.464 : :04
00:18:20.182 : :05
00:20:20.553 : :06
00:27:51.336 : :07
00:31:03.278 : :08
00:34:52.716 : :09
00:37:48.600 : :10
00:40:59.832 : :11
00:46:32.373 : :12
00:53:07.643 : :13
01:01:36.359 : :14
01:04:07.719 : :15
01:08:08.876 : :16
01:14:09.320 : :17
01:15:49.170 : :18
01:18:26.327 : :19
01:20:54.725 : :20
01:25:08.228 : :21
01:34:30.790 : :22
01:35:48.076 : :23
01:39:57.617 : :24
01:42:55.169 : :25
--Релиз группы:

Проверено на встроенном плейере ТВ LG 42LW4500--
Остальные раздачи этого фильма (3)
Благодарности релизеру (60)

Торрент:

Статус:

Размер:

Зарегистрирован   [ 2013-12-11 22:35 ]

проверено

9.33 GB

 
 Мнение о фильме (54)

1, 2, 3  След.






Для оценки 3Д - Анимация






 

Ностальгия по Видео-Салонам.Вход по 1 рублю.
И целый день под Впечатлением!!!
 

Ни фига себе сюрприз!
А если еще и 3д будет на высоте - то просто низкий поклон!
Фильм - веха в истории, маленький шаг для одной картины- но гигантский шаг для всего кинематографа!)))))))))))))
 

Понастальгируем в 3D....
 

Судя по скринам - разднесение слоев как у Конана и Я-Робота. Последние для меня - худшие примеры конвертации.
Есть ли кто уже сложивший реальные впечатления?
 

Фильм культовый, приятно было пересмотреть. Качество конвертации показалось хуже, чем в "Парке Юрского периода", но лучше, чем то, которого ожидал :). Иногда фон казался вогнутым. Картинка неплохая, по сравнению с предыдущими 2D изданиями "Хищника". Жаль, оказалось Side by Side.
 

Конвертация. У меня этот фильм на один гиг больше места занимает, в названии русским языком написано - конвертация! Вот надпись - Хищник (1987) 720p, Half Side-by-Side Горизонтальная анаморфная стереопара, 2D-3D конвертация.mkv
Вчера скачал этот, разницы никакой.
 

3D слабое...Оно есть, но очень слабое...Объем минимален...
 

3д слабое, но всё-таки 3д. Спасибо.
 
Виталий Цыганов Профиль 11-Дек-2013 13:26

сама картинка вроде как и ничего, но 3d очень слабое. Объема практически нет, все слоистое какое-то...
 

visionetik, позвольте не согласиться. Объем здесь еще получше чем у некоторых современных фильмов, которые тоже конвертировались (а точнее, получше чем у большинства современных 3D-фильмов).
 
Дмитрий ТН Профиль 11-Дек-2013 21:38

Фильмец зачетный, обязательно смотреть! Спасибо!
 

Спасибо! а можно надеяться на вторую часть? признаться (и пусть меня закидают яйцами) вторая мне нравится ещё больше, был бы счастлив посмотреть её в 3D.
 

Как для конверта , довольно не плохо. На скринах вроде горизонталка а в описании вертикалка . За труды спасибо.
 

Здорово!!! Классно что старые фильмы можно посмотреть заново и уже в 3Д формате,спасибо огромное .кстати я слышал что хотели Терминатор 2 также переделать в 3Д формат
 

Фильм удалил! 3D никакое
 

Разочарован ! Oбъема практически нет !
 

позвольте не согласиться. Объем здесь еще получше чем у некоторых современных фильмов, которые тоже конвертировались (а точнее, получше чем у большинства современных 3D-фильмов).
есть и похуже, согласен. Но есть и получше.
Не знаю, кому как, а для меня идеалом конвертации стал Титаник.
 

Объём увидел только: на первых секундах фильма ( там где звёзды на чёрном небе и корабль Хищника) и во время титров в начале и в конце. На винте лежит 2D-вариант в неплохом качестве ( один из моих любимых фильмов) , наверное его и оставлю, т. к. 3D никакое ( имхо, естественно)
 

Все сделано абсолютно в меру,--- не потерялось ощущение старого знакомого и в то же время стереоэффект вывел фильм на новую высоту!
 

Страница 1 из 3

1, 2, 3  След.