Торренты   
 
 

 

Норвегия 3D: Дикая природа / Norway 3D [2013, BDRip, half1080p, Anamorph OverUnder]

Рейтинг 3D:
12 голосов
8.6
Рейтинг фильма:
11 голосов
8.2
 
Вы должны быть авторизированы,
чтобы ставить оценки


Норвегия 3D: Дикая природа
Norway 3D

Год выпуска: 2013
Страна: Германия (Power Pictures)
Жанр: Документальный
Продолжительность: 01:01:51
Перевод: Профессиональный (дублированный)
Режиссер: Аттила Тенки / Attila Tenki
Описание: Норвегия - древнее скандинавское государство. Эта северная страна поражает своими горными ландшафтами, вековыми ледниками и страшно красивыми фьордами - морскими заливами со скалистыми берегами. Страна, название которой переводится как "путь на север", приглашает вас прямо сейчас в удивительное по своей красоте путешествие, а технология 3D позволит вам увидеть все красоты этой древней страны в мелких деталях.-Релиз на Blu-Ray (Россия): 4 декабря 2013
.
-Качество: BDRip (by Ash61)
Контейнер: MKV
Формат 3D: Anamorph OverUnder / Вертикальная анаморфная стереопара
Порядок ракурсов: левый ракурс первый-Видео: AVC / 23,976 fps / 1920х1080p / 13.9 Mbps
Аудио:
#1 - Русский / AC3 / 48 KHz / 5.1 ch / 640 Kbps (Дубляж - BD 3D Rus)
#2 - Английский / AC3 / 48 KHz / 5.1 ch / 640 Kbps
Субтитры: Отсутствуют

MediaInfo

General
Unique ID : 192603366938463220766421438115524294739 (0x90E60F26445D90C385DCA5BBA05AB853)
Complete name : E:\Norway(2013)3D-halfOU(Ash61).mkv
Format : Matroska
Format version : Version 2
File size : 6.68 GiB
Duration : 1h 1mn
Overall bit rate : 15.5 Mbps
Movie name : Норвегия / Norway (2013) 3D
Encoded date : UTC 2013-12-13 14:12:19
Writing application : mkvmerge v5.8.0 ('No Sleep / Pillow') built on Sep 2 2012 15:37:04
Writing library : libebml v1.2.3 + libmatroska v1.3.0
Video
ID : 1
Format : AVC
Format/Info : Advanced Video Codec
Format profile : High@L4.1
Format settings, CABAC : Yes
Format settings, ReFrames : 4 frames
Codec ID : V_MPEG4/ISO/AVC
Duration : 1h 1mn
Bit rate : 13.9 Mbps
Width : 1 920 pixels
Height : 1 080 pixels
Display aspect ratio : 16:9
Frame rate mode : Constant
Frame rate : 23.976 fps
Color space : YUV
Chroma subsampling : 4:2:0
Bit depth : 8 bits
Scan type : Progressive
Bits/(Pixel*Frame) : 0.279
Stream size : 6.00 GiB (90%)
Title : BDRip by Ash61
Writing library : x264 core 129 r2245 bc13772
Encoding settings : cabac=1 / ref=4 / deblock=1:-3:-3 / analyse=0x3:0x113 / me=umh / subme=10 / psy=1 / psy_rd=1.00:0.15 / mixed_ref=1 / me_range=32 / chroma_me=1 / trellis=2 / 8x8dct=1 / cqm=0 / deadzone=21,11 / fast_pskip=1 / chroma_qp_offset=-3 / threads=12 / lookahead_threads=2 / sliced_threads=0 / nr=0 / decimate=1 / interlaced=0 / bluray_compat=0 / constrained_intra=0 / bframes=10 / b_pyramid=2 / b_adapt=2 / b_bias=0 / direct=3 / weightb=1 / open_gop=0 / weightp=2 / keyint=250 / keyint_min=23 / scenecut=40 / intra_refresh=0 / rc_lookahead=60 / rc=crf / mbtree=1 / crf=17.5 / qcomp=0.70 / qpmin=0 / qpmax=69 / qpstep=4 / vbv_maxrate=40000 / vbv_bufsize=30000 / crf_max=0.0 / nal_hrd=none / frame-packing=4 / ip_ratio=1.40 / aq=1:0.70
Language : German
Default : Yes
Forced : No
Audio #1
ID : 2
Format : AC-3
Format/Info : Audio Coding 3
Mode extension : CM (complete main)
Format settings, Endianness : Big
Codec ID : A_AC3
Duration : 1h 1mn
Bit rate mode : Constant
Bit rate : 640 Kbps
Channel(s) : 6 channels
Channel positions : Front: L C R, Side: L R, LFE
Sampling rate : 48.0 KHz
Bit depth : 16 bits
Compression mode : Lossy
Stream size : 283 MiB (4%)
Title : Дубляж - BD 3D Rus
Language : Russian
Default : Yes
Forced : No
Audio #2
ID : 3
Format : AC-3
Format/Info : Audio Coding 3
Mode extension : CM (complete main)
Format settings, Endianness : Big
Codec ID : A_AC3
Duration : 1h 1mn
Bit rate mode : Constant
Bit rate : 640 Kbps
Channel(s) : 6 channels
Channel positions : Front: L C R, Side: L R, LFE
Sampling rate : 48.0 KHz
Bit depth : 16 bits
Compression mode : Lossy
Stream size : 283 MiB (4%)
Language : English
Default : No
Forced : No
Menu
00:00:00.000 : :1
00:07:24.527 : :2
00:15:18.751 : :3
00:23:26.739 : :4
00:31:33.266 : :5
00:38:48.993 : :6
00:46:36.419 : :7
00:54:41.820 : :8

Для оценки 3Д - Анимированные скрины












Благодарности релизеру (33)

Торрент:

Статус:

Размер:

Зарегистрирован   [ 2013-12-14 18:49 ]

проверено

6.68 GB

 
 Мнение о фильме (6)





кто смотрел как 3D?
 

Величие и спокойствие – то, чего так не хватает нам, жителям городов. Куда мы идем?!...
3D придает величию – грандиозность.
Благодарю ash61 и всех, принявших участие в создании и раздаче этого фильма.
 

Очень красивый видовой фильм.
 

3Д отличное - и глубина и "вылеты", как надо (разумеется в контексте жанра)! Наш север чем-то схож с Норвегией, если бы еще не был так загажен продуктами жизнедеятельности человека.
Спасибо ash61 - релиз замечательный!
 

Новое представление о Норвегии - почти как там побывал... 3D очень даже нормальный. Спасибо ash61 !
 

Спасибо мне понравилось.