Торренты   
 
 

 

Скрытые миры 3Д: Пещеры мёртвых / Verborgene Welten 3D: Die Hoehlen der Toten / Hidden Worlds 3D: Caves of the Dead [2013, BDRip, half1080p, Anamorph OverUnder] Eng

Рейтинг 3D:
3 голосов
8.0
Рейтинг фильма:
2 голосов
6.5
 
Вы должны быть авторизированы,
чтобы ставить оценки


Скрытые миры 3Д: Пещеры мёртвых
Verborgene Welten 3D: Die Hoehlen der Toten
Hidden Worlds 3D: Caves of the Dead

Год выпуска: 2013
Страна: Германия (New KSM, Blue Note)
Жанр: Документальный
Продолжительность: 01:33:36
Перевод: Отсутствует
Режиссер: Norbert Vander
Продюсеры: Peter Baaten, Benjamin Krause
Композитор: Burkhard Maria Fincke
В фильме снимались: Florian Huber, Uli Kunz, Christian Howe, Robert Marc Lehmann, Robert Schmittner, Colin Solman (рассказчик на английском)...
Описание: Погружение с дайверами в подводную систему пещер полуострова Юкатан (Мексика), где хорошо сохранились останки жизнедеятельности майя и даже останки динозавров. Также в фильме показаны постановочные сцены жизни майя.
Доп. инфо: Смотреть до конца - после финальных титров ещё кое-что показано...- . -Качество: BDRip (by Ash61)
Контейнер: MKV
Формат 3D: Anamorph OverUnder / Вертикальная анаморфная стереопара
Порядок ракурсов: левый ракурс первый-Видео: AVC / 23,976 fps / 1920х1080p / 13.7 Mbps
Аудио: Английский / AC3 / 48 KHz / 5.1 ch / 640 Kbps
Субтитры: Внешние (SRT UTF-8) English Full

MediaInfo

General
Unique ID : 222067780718324561576577747663932422863 (0xA710B2E8493B238E8F8C26116820FACF)
Complete name : E:\HiddenWorlds.CavesOfTheDead(2013)3D-halfOU(Ash61)Eng\HiddenWorlds.CavesOfTheDead(2013)3D-halfOU(Ash61)Eng.mkv
Format : Matroska
Format version : Version 2
File size : 9.54 GiB
Duration : 1h 33mn
Overall bit rate : 14.6 Mbps
Movie name : Скрытые миры: Пещеры мёртвых / Hidden Worlds 3D: Caves of the Dead (2013) 3D
Encoded date : UTC 2013-12-08 19:34:39
Writing application : mkvmerge v5.8.0 ('No Sleep / Pillow') built on Sep 2 2012 15:37:04
Writing library : libebml v1.2.3 + libmatroska v1.3.0
Video
ID : 1
Format : AVC
Format/Info : Advanced Video Codec
Format profile : High@L4.1
Format settings, CABAC : Yes
Format settings, ReFrames : 4 frames
Codec ID : V_MPEG4/ISO/AVC
Duration : 1h 33mn
Bit rate : 13.7 Mbps
Width : 1 920 pixels
Height : 1 080 pixels
Display aspect ratio : 16:9
Frame rate mode : Constant
Frame rate : 23.976 fps
Color space : YUV
Chroma subsampling : 4:2:0
Bit depth : 8 bits
Scan type : Progressive
Bits/(Pixel*Frame) : 0.275
Stream size : 8.93 GiB (94%)
Title : BDRip by Ash61
Writing library : x264 core 129 r2245 bc13772
Encoding settings : cabac=1 / ref=4 / deblock=1:-3:-3 / analyse=0x3:0x113 / me=umh / subme=10 / psy=1 / psy_rd=1.00:0.15 / mixed_ref=1 / me_range=32 / chroma_me=1 / trellis=2 / 8x8dct=1 / cqm=0 / deadzone=21,11 / fast_pskip=1 / chroma_qp_offset=-3 / threads=12 / lookahead_threads=2 / sliced_threads=0 / nr=0 / decimate=1 / interlaced=0 / bluray_compat=0 / constrained_intra=0 / bframes=9 / b_pyramid=2 / b_adapt=2 / b_bias=0 / direct=3 / weightb=1 / open_gop=0 / weightp=2 / keyint=250 / keyint_min=23 / scenecut=40 / intra_refresh=0 / rc_lookahead=60 / rc=crf / mbtree=1 / crf=17.5 / qcomp=0.70 / qpmin=0 / qpmax=69 / qpstep=4 / vbv_maxrate=40000 / vbv_bufsize=30000 / crf_max=0.0 / nal_hrd=none / frame-packing=4 / ip_ratio=1.40 / aq=1:0.70
Language : German
Default : Yes
Forced : No
Audio
ID : 2
Format : AC-3
Format/Info : Audio Coding 3
Mode extension : CM (complete main)
Format settings, Endianness : Big
Codec ID : A_AC3
Duration : 1h 33mn
Bit rate mode : Constant
Bit rate : 640 Kbps
Channel(s) : 6 channels
Channel positions : Front: L C R, Side: L R, LFE
Sampling rate : 48.0 KHz
Bit depth : 16 bits
Compression mode : Lossy
Stream size : 428 MiB (4%)
Language : English
Default : Yes
Forced : No
Menu
00:00:00.000 : :1
00:02:57.551 : :2
00:10:37.094 : :3
00:17:06.400 : :4
00:32:12.680 : :5
00:35:26.331 : :6
00:41:46.420 : :7
00:46:44.217 : :8
00:51:06.146 : :9
01:04:01.628 : :10
01:15:26.104 : :11
01:27:19.984 : :12

Для оценки 3Д - Анимированные скрины















Благодарности релизеру (15)

Торрент:

Статус:

Размер:

Зарегистрирован   [ 2013-12-14 18:57 ]

проверено

9.54 GB

 
 Мнение о фильме (4)





неужели такой бюджет у фильма? заценим, спасибо Саше.
 

жаль перевода нет
 

maga101m, сорри, чё-то проморгал! :D
 

Хороший фильм.Еще бы перевод.