Торренты   
 
 

 

Индюки: Назад в будущее / Free Birds (Джимми Хейуорд) [2013 г., Anamorph OverUnder]

Рейтинг 3D:
74 голосов
7.4
Рейтинг фильма:
74 голосов
7.4
 
Вы должны быть авторизированы,
чтобы ставить оценки


Индюки: Назад в будущее / Free Birds Год выпуска: 2013
Страна: США (Relativity Media, Reel FX Animation Studios)
Жанр: мультфильм, комедия, приключения, семейный
Продолжительность: 01:31:02
Перевод: Профессиональный (полное дублирование)
Режиссер: Джимми Хейуорд
В ролях: Оуэн Уилсон, Вуди Харрельсон, Эми Полер, Джордж Такей, Колм Мини, Кит Дэвид, Дэн Фоглер, Джимми Хейуорд, Кейтлин Мехер, Карлос Аласраки
Описание: Индюк Реджи вырос на обычной ферме, его жизнь была скучной и однообразной, как и у других птиц. Однако он отличался от сородичей тем, что умел пользоваться смекалкой и понимал, зачем его кормят. Поедание индейки на День Благодарения — знаменитая американская традиция, которая определяет смысл существования всех индюков на этой ферме. Однажды у Реджи появилась возможность кардинально изменить ситуацию: вместе с безумным приятелем Джейком они отправляются в необычное путешествие на машине времени. Основная задача — вернуться во времена, когда зарождалась традиция приготовления индейки на праздник, и изменить ход истории.
Качество: BDrip
Контейнер: MKV
Формат 3D: Anamorph OverUnder / Вертикальная анаморфная стереопара
Видео кодек: x264
Аудио кодек: AC-3
Видео: AVC, High@L4.1, 1920х1080, 23,976 кадра/сек, 7427 Кбит/сек
Аудио:
#1 - Русский / AC3 / 48 KHz / 5.1 ch / 640 Kbps (Дубляж - BD 3D)
Субтитры: отсутствуют

Скриншоты

Media Info

Общее
Уникальный идентификатор : 190271877660900967611943786956278538633 (0x8F2507DA6516CE11A731FFD456AD2189)
Полное имя : H:\Source\индюки\FreeBirds.3D.32013.BDrip.Half.OU.x264.AC3.(itsamna).mkv
Формат : Matroska
Версия формата : Version 4 / Version 2
Размер файла : 5,23 Гбайт
Продолжительность : 1 ч. 31 м.
Общий поток : 8231 Кбит/сек
Название фильма : Free Birds 3D rip by itsamna aka StarStranger (release 3D-RuGroup)
Дата кодирования : UTC 2013-12-15 08:37:59
Программа кодирования : mkvmerge v6.3.0 ('You can't stop me!') built on Jul 19 2013 16:27:38
Библиотека кодирования : libebml v1.3.0 + libmatroska v1.4.1
Видео
Идентификатор : 1
Формат : AVC
Формат/Информация : Advanced Video Codec
Профиль формата : High@L4.1
Параметр CABAC формата : Да
Параметр ReFrames формата : 4 кадра
Идентификатор кодека : V_MPEG4/ISO/AVC
Продолжительность : 1 ч. 31 м.
Битрейт : 7427 Кбит/сек
Ширина : 1920 пикселей
Высота : 1080 пикселей
Соотношение сторон : 16:9
Режим частоты кадров : Постоянный
Частота кадров : 23,976 кадра/сек
Цветовое пространство : YUV
Субдискретизация насыщенности : 4:2:0
Битовая глубина : 8 бит
Тип развёртки : Прогрессивная
Бит/(Пиксели*Кадры) : 0.149
Размер потока : 4,72 Гбайт (90%)
Библиотека кодирования : x264 core 130 r2273 b3065e6
Настройки программы : cabac=1 / ref=4 / deblock=1:-3:-3 / analyse=0x3:0x133 / me=umh / subme=10 / psy=1 / psy_rd=1.00:0.10 / mixed_ref=1 / me_range=32 / chroma_me=1 / trellis=2 / 8x8dct=1 / cqm=0 / deadzone=21,11 / fast_pskip=0 / chroma_qp_offset=-3 / threads=12 / lookahead_threads=2 / sliced_threads=0 / nr=0 / decimate=1 / interlaced=0 / bluray_compat=0 / constrained_intra=0 / bframes=7 / b_pyramid=2 / b_adapt=2 / b_bias=0 / direct=3 / weightb=1 / open_gop=0 / weightp=2 / keyint=250 / keyint_min=23 / scenecut=40 / intra_refresh=0 / rc_lookahead=60 / rc=crf / mbtree=1 / crf=18.0 / qcomp=0.60 / qpmin=0 / qpmax=69 / qpstep=4 / vbv_maxrate=50000 / vbv_bufsize=62500 / crf_max=0.0 / nal_hrd=none / ip_ratio=1.40 / aq=1:0.90
Default : Да
Forced : Нет
Аудио
Идентификатор : 2
Формат : AC-3
Формат/Информация : Audio Coding 3
Расширение режима : CM (complete main)
Параметр Endianness формата : Big
Идентификатор кодека : A_AC3
Продолжительность : 1 ч. 31 м.
Вид битрейта : Постоянный
Битрейт : 640 Кбит/сек
Каналы : 6 каналов
Расположение каналов : Front: L C R, Side: L R, LFE
Частота : 48,0 КГц
Битовая глубина : 16 бит
Метод сжатия : С потерями
Размер потока : 417 Мбайт (8%)
Default : Да
Forced : Нет
Меню
00:00:00.000 : :01
00:05:46.638 : :02
00:10:19.744 : :03
00:16:16.767 : :04
00:22:34.687 : :05
00:26:28.629 : :06
00:33:04.024 : :07
00:39:01.256 : :08
00:43:44.121 : :09
00:48:26.028 : :10
00:55:57.271 : :11
01:01:39.738 : :12
01:07:37.345 : :13
01:14:21.248 : :14
01:20:09.638 : :15
01:23:56.073 : :16
--Релиз группы:

Проверено на встроенном плейере ТВ LG 42LW4500--03.02.14 - Торрент перезалит, желающие скачайте заново файл.
Остальные раздачи этого фильма (2)
Благодарности релизеру (60)

Торрент:

Статус:

Размер:

Зарегистрирован   [ 2014-02-03 19:49 ]

проверено

5.23 GB

 
 Мнение о фильме (26)

Пред.  1, 2






мульт прикольный можно раз посмотреть
 

Нормальный ржачный детский мульт без излишеств.
 

спасибо! мультик не плохой.
 

Мультик хороший.
 

так сибе!
 

Не смотрите на плохие комменты, замечательный мультик!!! Мультфильмы ведь для детей предназначены, а не для "больших дядей", поэтому сюжет и не должен быть слишком замудрен. Качайте, дорогие мамы и папы. Вашему ребенку понравится!
 

Страница 2 из 2

Пред.  1, 2