Торренты   
 
 


Новая Зеландия 3D: Забытый рай в 3Д / New Zealand 3D: The Forgotten Paradise 3D (Аттила Тенки / Attila Tenki) [2013, Документальный, BDrip, 1080p]Full OverUnder / Вертикальная стереопара

Рейтинг 3D:
10 голосов
6.6
Рейтинг фильма:
10 голосов
7.8
 
Вы должны быть авторизированы,
чтобы ставить оценки


Новая Зеландия 3D: Забытый рай / New Zealand 3D: The Forgotten Paradise
Год выпуска: 2013
Страна: Германия
Студия: Power Pictures
Жанр: Документальный
Продолжительность: 01:03:22
Перевод: Профессиональный (дублированный)
Русские субтитры: нет
Режиссер на русском: Аттила Тенки
Режиссер на английском: Attila Tenki
Описание: Новая Зеландия - уникальная страна: маленькие острова на юго-западе Океании повторяют весь мир в миниатюре. Туристы, уставшие от популярных курортов, отправляются в Новую Зеландию за незабываемыми впечатлениями. Здесь можно насладиться роскошными пляжами и подышать горным воздухом, почувствовать ритм больших городов и уют деревень, далеких от цивилизации. Вместе с документальным фильмом "Новая Зеландия 3D. Забытый рай" вы совершите увлекательное путешествие по этой стране не выходя из дома.
Сэмпл: http://www.sendspace.com/file/31tvnk
Качество: BDrip
Контейнер: MKV
Формат 3D: OverUnder / Вертикальная стереопара
Порядок ракурсов: левый ракурс первый
Видео кодек: x264
Аудио кодек: AC3
Видео: AVC / High@L5.0 / 23,976 fps / 1920х2160 / 28,3 Мбит/сек
Аудио: Русский / AC3 / 48 KHz / 5.1 ch / 640 Кбит/сек
Аудио 2: Английский / AC3 / 48 KHz / 5.1 ch / 640 Кбит/сек
Релиз группы: ВНИМАНИЕ ! На встроенных ТВ-плеерах работать не будет!!!
Железные плееры на которых воспроизводятся полные стереопары:Popcorn C-200 , Dune HD Smart D1 , Dune HD DUO , Dune HD Smart H1 , Dune HD Smart B1 , Dune HD Max , Dune HD TV-303D , Dune HD Base 3D , Dune HD TV-301

MediaInfo

Общее
Уникальный идентификатор : 192282910333093226107403065302312356156 (0x90A8576B4326F30EBC424CC80AA9093C)
Полное имя : E:\закачки\New Zealand 3D The Forgotten Paradise.Rip by SeRoGa00.mkv
Формат : Matroska
Версия формата : Version 2
Размер файла : 13,4 Гбайт
Продолжительность : 1 ч. 3 м.
Общий поток : 30,2 Мбит/сек
Дата кодирования : UTC 2013-12-20 03:02:20
Программа кодирования : mkvmerge v3.4.0 ('Rapunzel') сборка от May 15 2010 09:38:20
Библиотека кодирования : libebml v0.8.0 + libmatroska v0.9.0
Видео
Идентификатор : 1
Формат : AVC
Формат/Информация : Advanced Video Codec
Профиль формата : High@L5.0
Параметр CABAC формата : Да
Параметр ReFrames формата : 4 кадра
Идентификатор кодека : V_MPEG4/ISO/AVC
Продолжительность : 1 ч. 3 м.
Битрейт : 28,3 Мбит/сек
Ширина : 1920 пикселей
Высота : 2160 пикселей
Соотношение сторон : 0,889
Частота кадров : 23,976 кадра/сек
Цветовое пространство : YUV
Субдискретизация насыщенности : 4:2:0
Битовая глубина : 8 бит
Тип развёртки : Прогрессивная
Бит/(Пиксели*Кадры) : 0.285
Размер потока : 12,5 Гбайт (94%)
Заголовок : Rip by SeRoGa00
Библиотека кодирования : x264 core 138 r2356 a1d3d17
Настройки программы : cabac=1 / ref=4 / deblock=1:-3:-3 / analyse=0x3:0x113 / me=umh / subme=9 / psy=1 / psy_rd=1.00:0.15 / mixed_ref=1 / me_range=24 / chroma_me=1 / trellis=2 / 8x8dct=1 / cqm=0 / deadzone=21,11 / fast_pskip=1 / chroma_qp_offset=-3 / threads=9 / lookahead_threads=1 / sliced_threads=0 / nr=0 / decimate=1 / interlaced=0 / bluray_compat=0 / constrained_intra=0 / bframes=8 / b_pyramid=2 / b_adapt=2 / b_bias=0 / direct=3 / weightb=1 / open_gop=0 / weightp=2 / keyint=250 / keyint_min=23 / scenecut=40 / intra_refresh=0 / rc_lookahead=60 / rc=crf / mbtree=1 / crf=18.0 / qcomp=0.60 / qpmin=10 / qpmax=69 / qpstep=4 / vbv_maxrate=40000 / vbv_bufsize=40000 / crf_max=0.0 / nal_hrd=none / ip_ratio=1.40 / aq=1:1.00
Язык : English
Аудио #1
Идентификатор : 2
Формат : AC-3
Формат/Информация : Audio Coding 3
Расширение режима : CM (complete main)
Идентификатор кодека : A_AC3
Продолжительность : 1 ч. 3 м.
Вид битрейта : Постоянный
Битрейт : 640 Кбит/сек
Каналы : 6 каналов
Расположение каналов : Front: L C R, Side: L R, LFE
Частота : 48,0 КГц
Битовая глубина : 16 бит
Метод сжатия : С потерями
Размер потока : 290 Мбайт (2%)
Язык : Russian
Аудио #2
Идентификатор : 3
Формат : AC-3
Формат/Информация : Audio Coding 3
Расширение режима : CM (complete main)
Идентификатор кодека : A_AC3
Продолжительность : 1 ч. 3 м.
Вид битрейта : Постоянный
Битрейт : 640 Кбит/сек
Каналы : 6 каналов
Расположение каналов : Front: L C R, Side: L R, LFE
Частота : 48,0 КГц
Битовая глубина : 16 бит
Метод сжатия : С потерями
Размер потока : 290 Мбайт (2%)
Язык : English

Скриншоты


Остальные раздачи этого фильма (2)
Благодарности релизеру (1)

Торрент:

Статус:

Размер:

Зарегистрирован   [ 2013-12-20 15:47 ]

проверено

13.38 GB

 
 Мнение о фильме (9)





Вот это здорово! Видел раньше фотоотчет наших туристов об этой действительно уникальной стране. А тут в 3Д! Буду качать, несмотря на свой дохлый интернет, пожалуйста, поддержите раздачу! Релизеру- огромная благодарность!
 

Мне понравилось. И качество, и 3Д - на уровне. Спасибо релизеру.
 

Красивый фильм,хорошее 3D.Спасибо.
 

Интересный фильм о местах где вряд ли часто приходится бывать большинству из нас.
Вдвойне оттого обидно от издателя "Power Pictures" получить фильм, имеющий множество стереоскопического если не брака, то искажений :(((
Множество вертикального параллакса как на 0'23'', 0'53'', 1'40'' и т.д....
Скручивание ракурсов как на 1'01'', 5'24'', 7'46'' и т.д.
Разная контрастность на темных объектах как на 0'36'', 3'19'' и т.д.
Между нами вопросы:
вот как так можно издавать?
Может беда рипа?
Или BD так же?
Автору конечно же Спасибо.
 

StasyanTT, да нет - это беда БД, причём далеко не редкая. И тут ещё приемлемое качество.
Слава богу, мы не покупаем контент. А представьте, какое разводилово идёт для тех, кто покупает диски, причём за немалые деньги! Взять, к примеру, 90% отечественного 3Д - их вообще нельзя смотреть в 3Д!
 

видно что спарочка слабая была. на простеньких аппаратах: цветопередача, глубина черного, светосила, диафрагма ромбовидные блики дает.
Но зато все мы взяли и посмотрели Новую Зеландию ))) Вот друг недавно оттуда вернулся - будет с чем сравнить его фотки и задать каверзные вопросы при встрече ;)
 

Был недавно в Германии, прикупил несколько 3D BluRay. Думал этот не скоро появится на трэкере, но ..... - оперативно, однако ;)
 

Хороший фильм.а вот стерео-несколько утомительно бывает иногда-или я не умею его настроить)
 

стерео явно хромает цвета блеклые и воообще растянуто как то и нудновато - я недосмотрел в итоге