Торренты   
 
 


Доктор Кто: День Доктора / Doctor Who: The Day of the Doctor [2013 г., Anamorph OverUnder]

Рейтинг 3D:
113 голосов
6.5
Рейтинг фильма:
120 голосов
6.0
 
Вы должны быть авторизированы,
чтобы ставить оценки


Доктор Кто: День Доктора
Doctor Who: The Day of the Doctor
Сезон 7 эпизод 15
Год выпуска: 2013
Страна: Великобритания (телеканал ВВС)
Жанр: фантастика, приключения, драма
Продолжительность: 01:19:54
Перевод: Профессиональный (многоголосый, закадровый)
Режиссер: Ник Харран
В ролях: Мэтт Смит, Дэвид Теннант, Дженна Коулман, Билли Пайпер, Джон Хёрт, Джемма Редгрейв, Джоанна Пейдж, Ингрид Оливер и др.
Описание: В 2013 году что-то ужасное пробуждается в Национальной галерее Лондона; в 1562 году смертельный заговор зреет в елизаветинской Англии; а где-то в космосе многовековая битва достигает сокрушительного заключения.
Качество: BDrip
Контейнер: MKV
Формат 3D: Anamorph OverUnder / Вертикальная анаморфная стереопара
Видео кодек: Н.264
Аудио кодек: AC-3
Видео: AVC, High@L4.1, 1920х1080, 23,976 кадра/сек, 15,6 Мбит/сек
Аудио:
#1 - Русский / AC3 / 48 KHz / 2 ch / 192 Kbps (MVO - ВГТРК) Edit by Ash61
#2 - Русский / AC3 / 48 KHz / 2 ch / 192 Kbps (MVO - БайбаКо) Edit by Ash61
#3 - Английский / AC3 / 48 KHz / 5.1 ch / 640 Kbps (Original - BD 3D)

Скриншоты

Media Info

Общее
Уникальный идентификатор : 228119959503377849482531796162017995213 (0xAB9E4E5C0B87F4D681CC9B4CDDE7A9CD)
Полное имя : H:\Source\Doctor.Who.The.Day.Of.The.Doctor.3D.2013.BD3DRip.Half.OU.x264.AC3.3D-RuGroup.mkv
Формат : Matroska
Версия формата : Version 4 / Version 2
Размер файла : 9,46 Гбайт
Продолжительность : 1 ч. 19 м.
Общий поток : 17,0 Мбит/сек
Название фильма : Doctor Who - The Day Of The Doctor 3D (rip by itsamna aka StarStranger)
Дата кодирования : UTC 2013-12-26 16:01:58
Программа кодирования : mkvmerge v6.3.0 ('You can't stop me!') built on Jul 19 2013 16:27:38
Библиотека кодирования : libebml v1.3.0 + libmatroska v1.4.1
Видео
Идентификатор : 1
Формат : AVC
Формат/Информация : Advanced Video Codec
Профиль формата : High@L4.1
Параметр CABAC формата : Да
Параметр ReFrames формата : 4 кадра
Идентификатор кодека : V_MPEG4/ISO/AVC
Продолжительность : 1 ч. 19 м.
Битрейт : 15,6 Мбит/сек
Ширина : 1920 пикселей
Высота : 1080 пикселей
Соотношение сторон : 16:9
Режим частоты кадров : Постоянный
Частота кадров : 23,976 кадра/сек
Цветовое пространство : YUV
Субдискретизация насыщенности : 4:2:0
Битовая глубина : 8 бит
Тип развёртки : Прогрессивная
Бит/(Пиксели*Кадры) : 0.314
Размер потока : 8,71 Гбайт (92%)
Библиотека кодирования : x264 core 130 r2273 b3065e6
Настройки программы : cabac=1 / ref=4 / deblock=1:-3:-3 / analyse=0x3:0x133 / me=umh / subme=10 / psy=1 / psy_rd=1.00:0.15 / mixed_ref=1 / me_range=32 / chroma_me=1 / trellis=2 / 8x8dct=1 / cqm=0 / deadzone=21,11 / fast_pskip=0 / chroma_qp_offset=-3 / threads=12 / lookahead_threads=2 / sliced_threads=0 / nr=0 / decimate=1 / interlaced=0 / bluray_compat=0 / constrained_intra=0 / bframes=7 / b_pyramid=2 / b_adapt=2 / b_bias=0 / direct=3 / weightb=1 / open_gop=0 / weightp=2 / keyint=250 / keyint_min=23 / scenecut=40 / intra_refresh=0 / rc_lookahead=60 / rc=crf / mbtree=1 / crf=18.0 / qcomp=0.60 / qpmin=0 / qpmax=69 / qpstep=4 / vbv_maxrate=50000 / vbv_bufsize=62500 / crf_max=0.0 / nal_hrd=none / ip_ratio=1.40 / aq=1:0.90
Default : Да
Forced : Нет
Аудио #1
Идентификатор : 2
Формат : AC-3
Формат/Информация : Audio Coding 3
Расширение режима : CM (complete main)
Параметр Endianness формата : Big
Идентификатор кодека : A_AC3
Продолжительность : 1 ч. 19 м.
Вид битрейта : Постоянный
Битрейт : 192 Кбит/сек
Каналы : 2 канала
Расположение каналов : Front: L R
Частота : 48,0 КГц
Битовая глубина : 16 бит
Метод сжатия : С потерями
Размер потока : 110 Мбайт (1%)
Заголовок : MVO - ВГТРК (Edit by Ash61)
Язык : Russian
Default : Да
Forced : Нет
Аудио #2
Идентификатор : 3
Формат : AC-3
Формат/Информация : Audio Coding 3
Расширение режима : CM (complete main)
Параметр Endianness формата : Big
Идентификатор кодека : A_AC3
Продолжительность : 1 ч. 19 м.
Вид битрейта : Постоянный
Битрейт : 192 Кбит/сек
Каналы : 2 канала
Расположение каналов : Front: L R
Частота : 48,0 КГц
Битовая глубина : 16 бит
Метод сжатия : С потерями
Размер потока : 110 Мбайт (1%)
Заголовок : MVO - БайбаКо (Edit by Ash61)
Язык : Russian
Default : Нет
Forced : Нет
Аудио #3
Идентификатор : 4
Формат : AC-3
Формат/Информация : Audio Coding 3
Расширение режима : CM (complete main)
Параметр Endianness формата : Big
Идентификатор кодека : A_AC3
Продолжительность : 1 ч. 19 м.
Вид битрейта : Постоянный
Битрейт : 640 Кбит/сек
Каналы : 6 каналов
Расположение каналов : Front: L C R, Side: L R, LFE
Частота : 48,0 КГц
Битовая глубина : 16 бит
Метод сжатия : С потерями
Размер потока : 366 Мбайт (4%)
Заголовок : Original - BD 3D
Язык : English
Default : Нет
Forced : Нет
Меню
00:00:00.000 : :01
00:07:17.437 : :02
00:11:58.384 : :03
00:20:14.088 : :04
00:27:54.006 : :05
00:35:39.679 : :06
00:40:36.893 : :07
00:46:42.425 : :08
00:53:21.907 : :09
00:59:06.585 : :10
01:07:14.781 : :11
01:18:43.218 : :12
-- Релиз группы:

Проверено на встроенном плейере ТВ LG 42LW4500
--
Остальные раздачи этого фильма (3)
Благодарности релизеру (28)

Торрент:

Статус:

Размер:

Зарегистрирован   [ 2013-12-26 20:49 ]

проверено

9.46 GB

 
 Мнение о фильме (66)

1, 2, 3, 4  След.






Рекомендую
 

фильм охринеть спасибо
 

Ходил в кино, супер!
 

Интересная серия, и 3d хорошее.
 

Хороший получился фильм, дает представление о всем сериале даже тем, кто не видел ни одной серии, уважительно вспомнили всех исполнителей роли Доктора, завершили одни и начали другие сюжетные линии. Так и еще на 50 лет хватит :)! 3D хорошее, хоть и без эффектных вылетов.
 

фильм бред полнейший, видимо на любителя.
 

восхитительно)
Интересно, дальше будут серии в 3д выходить?
 

посмотрел 15 минут. Далее мой действия были: Shift+del
 

Мм да, похоже я тоже не любитель..
 

Отличная взаимосвязь фантастики и 3D. Забавный фильм.
 

Кто-то сказал про сюжет? Такой сюжет мог предумать только шизофреник! Не фильм ,а какой-то "винегрет".
 

wolfhound81, это и не фильм, это сериал которому уже 50 лет.
 

фуфло
 

Разочарован, на 30 минуте снес.
 

ребят-это не фильм)-это сериал, при чем 15я серия 7го сезона)
Так что кто в теме-тому приятного просмотра) серия просто супер))
 

Выдержал только 12 минут. В топку!
 

Спасибо за раздачу. Кто смотрит сериал - тому фильм придется по вкусу. Как по мне - стандартный британский фильмец ни о чем. 3Д в принципе, просматривается.
 

Поставил на закачку когда тут рейтинг был больше 8 баллов по этому фильму...Сам виноват в своей невнимательности. Я так понял, что фильм только для фанатов сериала. Не уверен что привлечет новых зрителей, так как выхвачен из контекста. Сразу складывается впечатление что смотриш какой-то бред...Возможно если у кого-то хватит терпения посмотреть подольше... Не мой случай.
 

СЕРИАЛ МНЕ НРАВИЛСЯ. А ЭТО ФИГНЯ ПОЛНАЯ. ВООБЩЕ НИЧЕМ НЕ ЗАЦЕПИЛО.
 

фильм фуфло. 3D норм. За релиз спасибо.
 

Страница 1 из 4

1, 2, 3, 4  След.