Торренты   
 
 

 

Молодой детектив Ди: Восстание морского дракона / Di Renjie: Shen du long wang (Цуй Харк) [2013 г., Anamorph OverUnder]

Рейтинг 3D:
107 голосов
8.5
Рейтинг фильма:
103 голосов
7.5
 
Вы должны быть авторизированы,
чтобы ставить оценки


Молодой детектив Ди: Восстание морского дракона
Di Renjie: Shen du long wang
Год выпуска: 2013
Страна: Китай, Гонконг
Жанр: Фэнтези, Боевик, Детектив, Приключения
Продолжительность: 02:14:00
Перевод: Любительский (двухголосый) [Ольга Гринтиева и Дмитрий Познанский (GREEN TEA)]
Режиссер: Цуй Харк
В ролях: Анджела Бейби, Марк Чао, Чэнь Кунь, Уильям Фэн, Дун Ху, Ким Бом, Карина Лау, Линь Гэн Синь, Цзинцзин Ма и др.
Описание: Посреди океана огромное судно терпит крушение. Ученые не понимают, как же это могло случится, ведь в период крушения судна, не было никакого серьезного шторма или же каких-то других катаклизмов. В общем, получается, что данный случай просто невозможно объяснить. Что же все таки случилось с кораблем? Что случилось со всеми членами нашей команды? На этот сложный вопрос должен будет ответить один молодой детектив, зовут которого Ди. Для того, чтобы ответить на этот сложный и страшный вопрос, ему потребуется отправиться к месту крушения этого судна. Парень совсем не догадывается о том, что в водах океана ожило какое-то чудовище. Получается так, что это чудовище только и ждет того, чтобы на эту территорию прибыл еще один корабль. Ведь именно за счет кораблей это древнее чудовище просто питается. Чудовище сможет разрушить любой корабль...
Качество: BDrip by StarStranger
Контейнер: MKV
Формат 3D: Anamorph OverUnder / Вертикальная анаморфная стереопара
Видео кодек: Н.264
Аудио кодек: AC-3
Видео: AVC, High@L4.1, 1920х1080, 23,976 кадра/сек, 7592 Кбит/сек
Аудио:
#1 - Русский / AC3 / 48 KHz / 2 ch / 192 Kbps (DVO - GREEN TEA) (Перевод: Евгений Матяш и Валерия Эстонка) Edit by Ash61
#2 - Китайский / AC3 / 48 KHz / 5.1 ch / 640 Kbps (Original - BD 3D)
Субтитры: (SRT):
#1 - Русские Форсированные (включены по умолчанию) Made by Ash61
#2 - English Full (Extract & Edit by Ash61)

Скриншоты

Media Info

Код:
Общее
Уникальный идентификатор                 : 222494328741037527054476619833880148260 (0xA762D9593C3221E79019CF631ACCF924)
Полное имя                               : H:\YoungDetectiveDee.RiseOfTheSeaDragon.3D.2013.BD3DRip.Half.OU.x264.AC3.3D-RuGroup.mkv
Формат                                   : Matroska
Версия формата                           : Version 4 / Version 2
Размер файла                             : 8,05 Гбайт
Продолжительность                        : 2 ч. 14 м.
Общий поток                              : 8595 Кбит/сек
Название фильма                          : Young Detective Dee: Rise of the Sea Dragon 3D (2013) release 3D-RuGroup
Дата кодирования                         : UTC 2013-12-27 14:49:12
Программа кодирования                    : mkvmerge v6.3.0 ('You can't stop me!') built on Jul 19 2013 16:27:38
Библиотека кодирования                   : libebml v1.3.0 + libmatroska v1.4.1
Видео
Идентификатор                            : 1
Формат                                   : AVC
Формат/Информация                        : Advanced Video Codec
Профиль формата                          : High@L4.1
Параметр CABAC формата                   : Да
Параметр ReFrames формата                : 4 кадра
Идентификатор кодека                     : V_MPEG4/ISO/AVC
Продолжительность                        : 2 ч. 14 м.
Битрейт                                  : 7592 Кбит/сек
Ширина                                   : 1920 пикселей
Высота                                   : 1080 пикселей
Соотношение сторон                       : 16:9
Режим частоты кадров                     : Постоянный
Частота кадров                           : 23,976 кадра/сек
Цветовое пространство                    : YUV
Субдискретизация насыщенности            : 4:2:0
Битовая глубина                          : 8 бит
Тип развёртки                            : Прогрессивная
Бит/(Пиксели*Кадры)                      : 0.153
Размер потока                            : 7,11 Гбайт (88%)
Библиотека кодирования                   : x264 core 130 r2273 b3065e6
Настройки программы                      : cabac=1 / ref=4 / deblock=1:-3:-3 / analyse=0x3:0x133 / me=umh / subme=10 / psy=1 / psy_rd=1.05:0.15 / mixed_ref=1 / me_range=32 / chroma_me=1 / trellis=2 / 8x8dct=1 / cqm=0 / deadzone=21,11 / fast_pskip=0 / chroma_qp_offset=-3 / threads=12 / lookahead_threads=2 / sliced_threads=0 / nr=0 / decimate=1 / interlaced=0 / bluray_compat=0 / constrained_intra=0 / bframes=8 / b_pyramid=2 / b_adapt=2 / b_bias=0 / direct=3 / weightb=1 / open_gop=0 / weightp=2 / keyint=250 / keyint_min=23 / scenecut=40 / intra_refresh=0 / rc_lookahead=60 / rc=crf / mbtree=1 / crf=18.0 / qcomp=0.60 / qpmin=0 / qpmax=69 / qpstep=4 / vbv_maxrate=50000 / vbv_bufsize=62500 / crf_max=0.0 / nal_hrd=none / ip_ratio=1.40 / aq=1:0.90
Default                                  : Да
Forced                                   : Нет
Аудио #1
Идентификатор                            : 2
Формат                                   : AC-3
Формат/Информация                        : Audio Coding 3
Расширение режима                        : CM (complete main)
Параметр Endianness формата              : Big
Идентификатор кодека                     : A_AC3
Продолжительность                        : 2 ч. 14 м.
Вид битрейта                             : Постоянный
Битрейт                                  : 192 Кбит/сек
Каналы                                   : 2 канала
Расположение каналов                     : Front: L R
Частота                                  : 48,0 КГц
Битовая глубина                          : 16 бит
Метод сжатия                             : С потерями
Размер потока                            : 184 Мбайт (2%)
Заголовок                                : Двухголосый закадровый - Ольга Гринтиева и Дмитрий Познанский
Язык                                     : Russian
Default                                  : Да
Forced                                   : Нет
Аудио #2
Идентификатор                            : 3
Формат                                   : AC-3
Формат/Информация                        : Audio Coding 3
Расширение режима                        : CM (complete main)
Параметр Endianness формата              : Big
Идентификатор кодека                     : A_AC3
Продолжительность                        : 2 ч. 14 м.
Вид битрейта                             : Постоянный
Битрейт                                  : 640 Кбит/сек
Каналы                                   : 6 каналов
Расположение каналов                     : Front: L C R, Side: L R, LFE
Частота                                  : 48,0 КГц
Битовая глубина                          : 16 бит
Метод сжатия                             : С потерями
Размер потока                            : 613 Мбайт (7%)
Заголовок                                : Original - BD 3D
Язык                                     : Chinese
Default                                  : Нет
Forced                                   : Нет
Текст #1
Идентификатор                            : 4
Формат                                   : UTF-8
Идентификатор кодека                     : S_TEXT/UTF8
Идентификатор кодека/Информация          : UTF-8 Plain Text
Заголовок                                : Форсированные (made by Ash61)
Язык                                     : Russian
Default                                  : Да
Forced                                   : Нет
Текст #2
Идентификатор                            : 5
Формат                                   : UTF-8
Идентификатор кодека                     : S_TEXT/UTF8
Идентификатор кодека/Информация          : UTF-8 Plain Text
Язык                                     : English
Default                                  : Нет
Forced                                   : Нет
Меню
00:00:24.288                             : :1
00:12:49.449                             : :2
00:22:55.388                             : :3
00:33:18.927                             : :4
00:46:35.765                             : :5
00:56:19.723                             : :6
01:06:50.437                             : :7
01:18:21.294                             : :8
01:29:52.818                             : :9
01:41:11.788                             : :10
01:52:01.854                             : :11
02:04:42.447                             : :12
--Релиз группы:

Проверено на встроенном плейере ТВ LG 42LW4500
--
Остальные раздачи этого фильма (2)
Благодарности релизеру (54)

Торрент:

Статус:

Размер:

Зарегистрирован   [ 2013-12-27 19:38 ]

проверено

8.05 GB

 
 Мнение о фильме (45)

1, 2, 3  След.






по 3D: много вылетов и прочих 3Д эффектов, что очень порадовало. Но смотреть этот фильм лучше всего в режиме "обрезанных краев", что бы картинка была на весь экран, т.к. иначе глубина картинки теряется, да и все 3Д эффекты сводятся к нулю. Ну а если хотите видеть весь кадр целиком - то смотреть тогда стоит через проэктор, т.к. фильм снимался видимо исключительно для кинотеатров.
по фильму: Сюжет конечно прихрамывает слегка, но тем не менее достаточно интересен ... есть правда и моменты, которые просто доводили до истерики (осторожно спойлер)
- Вот, это лучший РЫБОКОНЬ! (господи, что курил автор)
ну и конечно акробатические трюки как всегда на высоте! Ну а для тех кто не смотрел предыдущего фильма "Детектив Ди и тайна призрачного пламени" советую сначала посмотреть этот фильм, а уж только потом предыдущий, т.к. этот фильм как бы предыстория о жизни Ди (хоть фильмы почти друг с другом и не связаны)
 

Фильм очень понравился!Всем советую!
 

Спасибо за раздачу! с Новым годом!!!
 
Анатолий921 Профиль 04-Янв-2014 22:48

К фильму надо относиться с пониманием, что это китайский фильм, с полетами во время боя, прыжками на недосягаемую величину и прочими китайскими чудесами восточных единоборств. В остальном фильм хорош, в нем есть сюжет, есть happy end, есть хороший 3D эффект (даже неоднократно приходилось уворачиваться во время вылетов)
 

отрубил - ИМХО
 
александр54 Профиль 08-Янв-2014 03:20

как китайский фильм про сверх способности с хорошим качеством картинки вполне нормально
 

Фильмец,конечно, еще тот...Китай...
Но,буду ждать версию без черных полос.
В любом случае,спасибо за раздачу!
 

fatinia60, а как узнать с черными полосами или без?)
 

Ну, конечно, фантазия у китайцев зашкаливает, а 3D радует
 

fatinia60, а как узнать с черными полосами или без?)
Это шутка такая?
 

фильм красивый,красочный ,для любителей китайской эстетики . есть моменты посмеяться .довольно много вылетов
 

Аnатоliy052, нет, просто я думал может в описании где написано, я просто чайник чайником)
 

nesrock, в скриншотах это "написано")
 

Спасибо за раздачу!Фильм хороший.
 

Спасибо за полноразмер!Твои раздачи супер ash61!
 

Спасибо. Фильм хороший.
 

Меня в современных "кетайских" фильмах всегда одолевает вопрос: в оригинале там тоже в диалогах такая пурга или это переводчики не "асиливают"?
Вроде идёт, идёт сюжет. И тут начинается пурга.
А вот к визуальной части вопросов почти нет, всё красиво.
 

Фильм понравился, очень интересны морские эпизоды, хорошие вылеты. Спасибо за раздачу!
 
Владимир-4121 Профиль 03-Фев-2014 15:06

Фильм хороший,качество на высоте,3Д хорошее.Спасибо за раздачу.
 

Очень классные вылеты , их действительно много.
Чудесная сьемка, обожаю все вот ети полеты, отличные трюки и спецеффекты.
Фильм понравился, смотрели с удовольствием!
Ну а смысл......зато вылетов много.
.
 

Страница 1 из 3

1, 2, 3  След.