Торренты   
 
 

 

5 новых трейлеров [2014 г., DCPrip, Anamorph OverUnder]

Рейтинг 3D:
24 голосов
8.0
Рейтинг фильма:
24 голосов
8.2
 
Вы должны быть авторизированы,
чтобы ставить оценки


5 новых трейлеров
Год выпуска: 2014
Страна: Россия, США...
Продолжительность: общая 00:10:14--Описание:
1: 300 спартанцев: Расцвет империи - 300: Rise of an Empire
2: Белка и Стрелка. Лунные приключения
3: Планета обезьян: революция - Dawn of the Planet of the Apes
4: Я, Франкенштейн - I, Frankenstein
5: Помпеи - Pompeii
--Формат 3D: Anamorph OverUnder (левый ракурс верхний)
Качество: DCPrip
Видео: AVC / 1920х1080 / 24 fps /
Аудио: AC3 / 6 ch / 448 Kbps / 48 KHz / Русский

Скриншоты



Media Info Одного из файлов

Код:
General
Уникальный идентификатор                 : 244069101132428536188868375563415119600 (0xB79DFFC0E49518DCBCEAD840756CE6F0)
Полное имя                               : L:\_3D\3D-Trailers\_2014\3D\Trailer_I_Frankenstein(3D)HalfOU-abq.mkv
Формат                                   : Matroska
Версия формата                           : Version 2
Размер файла                             : 337 MiB
Продолжительность                        : 2mn 35s
Общий поток                              : 18.2 Mbps
Дата кодирования                         : UTC 2013-12-28 17:56:17
Программа кодирования                    : mkvmerge v4.0.0 ('The Stars were mine') сборка от Jun  6 2010 16:18:42
Библиотека кодирования                   : libebml v1.0.0 + libmatroska v1.0.0
Video
Идентификатор                            : 1
Формат                                   : AVC
Формат/Информация                        : Advanced Video Codec
Профиль формата                          : High@L4.1
Параметр CABAC формата                   : Yes
Параметр ReFrames формата                : 4 frames
Идентификатор кодека                     : V_MPEG4/ISO/AVC
Продолжительность                        : 2mn 35s
Битрейт                                  : 17.4 Mbps
Ширина                                   : 1 920 pixels
Высота                                   : 1 080 pixels
Соотношение сторон                       : 16:9
Режим частоты кадров                     : Constant
Частота кадров                           : 24.000 fps
Цветовое пространство                    : YUV
Субдискретизация насыщенности            : 4:2:0
Битовая глубина                          : 8 bits
Тип развёртки                            : Progressive
Бит/(Пиксели*Кадры)                      : 0.350
Размер потока                            : 322 MiB (96%)
Библиотека кодирования                   : x264 core 116 r2074 2641b9e
Настройки программы                      : cabac=1 / ref=4 / deblock=1:-3:-3 / analyse=0x3:0x113 / me=umh / subme=9 / psy=1 / psy_rd=1.00:0.15 / mixed_ref=1 / me_range=32 / chroma_me=1 / trellis=2 / 8x8dct=1 / cqm=0 / deadzone=21,11 / fast_pskip=1 / chroma_qp_offset=-3 / threads=6 / sliced_threads=0 / nr=0 / decimate=1 / interlaced=0 / bluray_compat=0 / constrained_intra=0 / bframes=6 / b_pyramid=2 / b_adapt=2 / b_bias=0 / direct=3 / weightb=1 / open_gop=0 / weightp=2 / keyint=240 / keyint_min=24 / scenecut=40 / intra_refresh=0 / rc_lookahead=60 / rc=crf / mbtree=1 / crf=18.0 / qcomp=0.85 / qpmin=0 / qpmax=69 / qpstep=4 / vbv_maxrate=40000 / vbv_bufsize=40000 / crf_max=0.0 / nal_hrd=none / frame-packing=4 / ip_ratio=1.40 / aq=1:0.70
Язык                                     : English
Default                                  : No
Forced                                   : No
Audio
Идентификатор                            : 2
Формат                                   : AC-3
Формат/Информация                        : Audio Coding 3
Расширение режима                        : CM (complete main)
Параметр Endianness формата              : Big
Идентификатор кодека                     : A_AC3
Продолжительность                        : 2mn 35s
Вид битрейта                             : Constant
Битрейт                                  : 448 Kbps
Каналы                                   : 6 channels
Расположение каналов                     : Front: L C R, Side: L R, LFE
Частота                                  : 48.0 KHz
Битовая глубина                          : 16 bits
Метод сжатия                             : Lossy
Размер потока                            : 8.29 MiB (2%)
Язык                                     : Russian
Default                                  : Yes
Forced                                   : No
Благодарности релизеру (32)

Торрент:

Статус:

Размер:

Зарегистрирован   [ 2013-12-29 13:55 ]

проверено

1.04 GB

 
 Мнение о фильме (10)





Большое спасибо. Посмотрим с удовольствием.
 

нехватает челопука в 3D !
 

3д не впечетлило
 

Понравилось продолжение спартанцев и Помпеи, про Франкенштейна, судя по ролику, получим фильм-микс из "Константина" и "Хеллбоя". Про обезьян по этому ролику вообще сказать что-то трудно. Релизеру благодарность.
 

фильмы очень не плохие 3д норма СПАСИБО
 

Понравились "Стрелка" и "Помпеи",ждем.
 

Новинки прикольные, буду ждать с нетерпением их появления на экранах!, но при просмотре трейлеров, 3D графика не впечатлила, маловато глубины!
 

надо смотреть весь фильм, а так ничего!
 

Спасибо за релизз!
 

В 300 спартанцев 3D класс