Торренты   
 
 

 

Мировое природное наследие / Weltnaturerbe / World Natural Heritage [2012, BDRip, half1080p, Anamorph OverUnder] Eng

Рейтинг 3D:
4 голосов
9.0
Рейтинг фильма:
4 голосов
8.2
 
Вы должны быть авторизированы,
чтобы ставить оценки


-Мировое природное наследие
Weltnaturerbe
World Natural Heritage

Год выпуска: 2012
Страна: Германия (New KSM)
Жанр: Документальный
Продолжительность (суммарная): 05:10:43
Перевод: Отсутствует
Режиссер: Norbert Vander
Продюсеры: Benjamin Krause, Peter Baaten
Музыка: Silas Gupta
Рассказчик (на английском): Colin Solman
Описание: Путешествие по природным паркам разных стран.-Серии:
1. Колумбия. Природный заповедник Малпело / Kolumbien. Malpelo Fauna and Flora Sanctuary / Colombia. Malpelo Fauna and Flora Sanctuary (00:51:54)
2. Коста-Рика. Заповедник Гуанакасте / Costa Rica. Area de Conservacion Guanacaste / Costa Rica. Area de Conservacion Guanacaste (00:51:49)
3. Панама. Национальный парк Ла Амистад / Panama. La Amistad Nationalpark / Panama. La Amistad National Park (00:51:15)
4. США. Национальный парк Гранд Каньон / USA. Grand Canyon Nationalpark / USA. Grand Canyon National Park (00:50:46)
5. США. Национальный парк Гавайские Вулканы - Большой остров / USA. Hawaii Vulcan Nationalpark - Big Island / USA. Hawaii Volcanoes National Park - Big Island (00:53:18)
6. США. Национальный парк Йеллоустоун / USA. Yelloustone Nationalpark / USA. Yelloustone National Park (00:51:41)
-Доп. инфо: 3Д в основном глубокое.- -Качество: BDRip (by Ash61)
Контейнер: MKV
Формат 3D: Anamorph OverUnder / Вертикальная анаморфная стереопара
Порядок ракурсов: левый ракурс первый-Видео: AVC / 23,976 fps / 1920х1080p / 17.2; 25.8; 21.7; 17.7; 16.8; 18.0 Mbps
Аудио: Английский / AC3 / 48 KHz / 5.1 ch / 640 Kbps
Субтитры: Отсутствуют

MediaInfo

Колумбия

General
Unique ID : 174139872271584348961222662471095624267 (0x83021E94675B240183F54F81565B224B)
Complete name : E:\WorldNaturalHeritage(2012)3D-halfOU(Ash61)Eng\WorldNaturalHeritage.Colombia(2012)3D-halfOU(Ash61)Eng.mkv
Format : Matroska
Format version : Version 3 / Version 2
File size : 6.59 GiB
Duration : 51mn 53s
Overall bit rate : 18.2 Mbps
Movie name : Weltnaturerbe Kolumbien 3D - Malpelo Nationalpark (3D) 2012 (by Ash61)
Encoded date : UTC 2013-02-24 12:11:15
Writing application : mkvmerge v5.8.0 ('No Sleep / Pillow') built on Sep 2 2012 15:37:04
Writing library : libebml v1.2.3 + libmatroska v1.3.0
Video
ID : 1
Format : AVC
Format/Info : Advanced Video Codec
Format profile : High@L4.1
MultiView_Count : 2
MultiView_Layout : Top-Bottom (left eye first)
Format settings, CABAC : Yes
Format settings, ReFrames : 4 frames
Codec ID : V_MPEG4/ISO/AVC
Duration : 51mn 53s
Bit rate : 17.2 Mbps
Width : 1 920 pixels
Height : 1 080 pixels
Display aspect ratio : 16:9
Frame rate mode : Constant
Frame rate : 23.976 fps
Color space : YUV
Chroma subsampling : 4:2:0
Bit depth : 8 bits
Scan type : Progressive
Bits/(Pixel*Frame) : 0.345
Stream size : 6.23 GiB (94%)
Title : BDrip by Ash61
Writing library : x264 core 119 r2106 07efeb4
Encoding settings : cabac=1 / ref=4 / deblock=1:-1:-1 / analyse=0x3:0x113 / me=umh / subme=9 / psy=1 / psy_rd=1.00:0.15 / mixed_ref=1 / me_range=32 / chroma_me=1 / trellis=2 / 8x8dct=1 / cqm=0 / deadzone=21,11 / fast_pskip=1 / chroma_qp_offset=-3 / threads=12 / sliced_threads=0 / nr=0 / decimate=1 / interlaced=0 / bluray_compat=0 / constrained_intra=0 / bframes=6 / b_pyramid=2 / b_adapt=2 / b_bias=0 / direct=3 / weightb=1 / open_gop=0 / weightp=2 / keyint=250 / keyint_min=23 / scenecut=40 / intra_refresh=0 / rc_lookahead=60 / rc=crf / mbtree=1 / crf=18.0 / qcomp=0.70 / qpmin=10 / qpmax=51 / qpstep=4 / vbv_maxrate=40000 / vbv_bufsize=30000 / crf_max=0.0 / nal_hrd=none / ip_ratio=1.40 / aq=1:0.70
Language : German
Default : Yes
Forced : No
Audio
ID : 2
Format : AC-3
Format/Info : Audio Coding 3
Mode extension : CM (complete main)
Format settings, Endianness : Big
Codec ID : A_AC3
Duration : 51mn 53s
Bit rate mode : Constant
Bit rate : 640 Kbps
Channel(s) : 6 channels
Channel positions : Front: L C R, Side: L R, LFE
Sampling rate : 48.0 KHz
Bit depth : 16 bits
Compression mode : Lossy
Stream size : 238 MiB (4%)
Language : English
Default : Yes
Forced : No
Menu
00:00:00.000 : :1
00:07:47.801 : :2
00:12:26.746 : :3
00:17:36.973 : :4
00:25:53.260 : :5
00:33:44.022 : :6
00:43:49.043 : :7
00:48:53.931 : :8

Коста-Рика

General
Unique ID : 187699591275193579049930361867705260682 (0x8D35A057BA378DBD9814937564281A8A)
Complete name : E:\WorldNaturalHeritage(2012)3D-halfOU(Ash61)Eng\WorldNaturalHeritage.CostaRica(2012)3D-halfOU(Ash61)Eng.mkv
Format : Matroska
Format version : Version 3 / Version 2
File size : 9.75 GiB
Duration : 51mn 49s
Overall bit rate : 26.9 Mbps
Movie name : Weltnaturerbe Costa Rica 3D - Guanacaste Nationalpark (3D) 2012 (by Ash61)
Encoded date : UTC 2013-02-24 17:34:44
Writing application : mkvmerge v5.8.0 ('No Sleep / Pillow') built on Sep 2 2012 15:37:04
Writing library : libebml v1.2.3 + libmatroska v1.3.0
Video
ID : 1
Format : AVC
Format/Info : Advanced Video Codec
Format profile : High@L4.1
MultiView_Count : 2
MultiView_Layout : Top-Bottom (left eye first)
Format settings, CABAC : Yes
Format settings, ReFrames : 4 frames
Codec ID : V_MPEG4/ISO/AVC
Duration : 51mn 49s
Bit rate : 25.8 Mbps
Width : 1 920 pixels
Height : 1 080 pixels
Display aspect ratio : 16:9
Frame rate mode : Constant
Frame rate : 23.976 fps
Color space : YUV
Chroma subsampling : 4:2:0
Bit depth : 8 bits
Scan type : Progressive
Bits/(Pixel*Frame) : 0.518
Stream size : 9.33 GiB (96%)
Title : BDrip by Ash61
Writing library : x264 core 129 r2245 bc13772
Encoding settings : cabac=1 / ref=4 / deblock=1:-1:-1 / analyse=0x3:0x113 / me=umh / subme=9 / psy=1 / psy_rd=1.00:0.15 / mixed_ref=1 / me_range=32 / chroma_me=1 / trellis=2 / 8x8dct=1 / cqm=0 / deadzone=21,11 / fast_pskip=1 / chroma_qp_offset=-3 / threads=12 / lookahead_threads=2 / sliced_threads=0 / nr=0 / decimate=1 / interlaced=0 / bluray_compat=0 / constrained_intra=0 / bframes=6 / b_pyramid=2 / b_adapt=2 / b_bias=0 / direct=3 / weightb=1 / open_gop=0 / weightp=2 / keyint=250 / keyint_min=23 / scenecut=40 / intra_refresh=0 / rc_lookahead=60 / rc=crf / mbtree=1 / crf=18.0 / qcomp=0.70 / qpmin=10 / qpmax=69 / qpstep=4 / vbv_maxrate=40000 / vbv_bufsize=30000 / crf_max=0.0 / nal_hrd=none / ip_ratio=1.40 / aq=1:0.70
Language : German
Default : Yes
Forced : No
Audio
ID : 2
Format : AC-3
Format/Info : Audio Coding 3
Mode extension : CM (complete main)
Format settings, Endianness : Big
Codec ID : A_AC3
Duration : 51mn 49s
Bit rate mode : Constant
Bit rate : 640 Kbps
Channel(s) : 6 channels
Channel positions : Front: L C R, Side: L R, LFE
Sampling rate : 48.0 KHz
Bit depth : 16 bits
Compression mode : Lossy
Stream size : 237 MiB (2%)
Language : English
Default : Yes
Forced : No
Menu
00:00:00.000 : :1
00:08:53.408 : :2
00:13:18.715 : :3
00:20:22.680 : :4
00:25:17.516 : :5
00:32:55.307 : :6
00:42:38.806 : :7
00:49:05.276 : :8

Панама

General
Unique ID : 238279302850840228282098156304394384698 (0xB342ECA8AD7269DFBC57B7D44A8C753A)
Complete name : E:\WorldNaturalHeritage(2012)3D-halfOU(Ash61)Eng\WorldNaturalHeritage.Panama(2012)3D-halfOU(Ash61)Eng.mkv
Format : Matroska
Format version : Version 2
File size : 8.14 GiB
Duration : 51mn 15s
Overall bit rate : 22.7 Mbps
Movie name : Weltnaturerbe Panama 3D: La Amistad National Park (3D) 2012 (by Ash61)
Encoded date : UTC 2013-03-17 17:32:08
Writing application : mkvmerge v5.8.0 ('No Sleep / Pillow') built on Sep 2 2012 15:37:04
Writing library : libebml v1.2.3 + libmatroska v1.3.0
Video
ID : 1
Format : AVC
Format/Info : Advanced Video Codec
Format profile : High@L4.1
Format settings, CABAC : Yes
Format settings, ReFrames : 4 frames
Codec ID : V_MPEG4/ISO/AVC
Duration : 51mn 15s
Bit rate : 21.7 Mbps
Width : 1 920 pixels
Height : 1 080 pixels
Display aspect ratio : 16:9
Frame rate mode : Constant
Frame rate : 23.976 fps
Color space : YUV
Chroma subsampling : 4:2:0
Bit depth : 8 bits
Scan type : Progressive
Bits/(Pixel*Frame) : 0.435
Stream size : 7.75 GiB (95%)
Title : BDRip by Ash61
Writing library : x264 core 129 r2245 bc13772
Encoding settings : cabac=1 / ref=4 / deblock=1:-1:-1 / analyse=0x3:0x113 / me=umh / subme=9 / psy=1 / psy_rd=1.00:0.15 / mixed_ref=1 / me_range=32 / chroma_me=1 / trellis=2 / 8x8dct=1 / cqm=0 / deadzone=21,11 / fast_pskip=1 / chroma_qp_offset=-3 / threads=12 / lookahead_threads=2 / sliced_threads=0 / nr=0 / decimate=1 / interlaced=0 / bluray_compat=0 / constrained_intra=0 / bframes=6 / b_pyramid=2 / b_adapt=2 / b_bias=0 / direct=3 / weightb=1 / open_gop=0 / weightp=2 / keyint=250 / keyint_min=23 / scenecut=40 / intra_refresh=0 / rc_lookahead=60 / rc=crf / mbtree=1 / crf=19.0 / qcomp=0.70 / qpmin=10 / qpmax=69 / qpstep=4 / vbv_maxrate=40000 / vbv_bufsize=30000 / crf_max=0.0 / nal_hrd=none / frame-packing=4 / ip_ratio=1.40 / aq=1:0.70
Language : German
Default : Yes
Forced : No
Audio
ID : 2
Format : AC-3
Format/Info : Audio Coding 3
Mode extension : CM (complete main)
Format settings, Endianness : Big
Codec ID : A_AC3
Duration : 51mn 15s
Bit rate mode : Constant
Bit rate : 640 Kbps
Channel(s) : 6 channels
Channel positions : Front: L C R, Side: L R, LFE
Sampling rate : 48.0 KHz
Bit depth : 16 bits
Compression mode : Lossy
Stream size : 235 MiB (3%)
Language : English
Default : Yes
Forced : No
Menu
00:00:00.000 : :1
00:06:26.303 : :2
00:14:35.500 : :3
00:21:46.430 : :4
00:27:03.455 : :5
00:35:50.315 : :6
00:39:15.436 : :7
00:45:43.282 : :8

Гранд Каньон

General
Unique ID : 210606201360858863419118429584887954793 (0x9E71476A6935867CBB2C88F50A30BD69)
Complete name : E:\WorldNaturalHeritage(2012)3D-halfOU(Ash61)Eng\WorldNaturalHeritage.USA.GrandCanyon(2012)3D-halfOU(Ash61)Eng.mkv
Format : Matroska
Format version : Version 2
File size : 6.65 GiB
Duration : 50mn 45s
Overall bit rate : 18.8 Mbps
Movie name : Всемирное природное наследие: Гранд-Каньон / World Natural Heritage: Grand Canyon (3D) 2012
Encoded date : UTC 2013-06-08 14:17:05
Writing application : mkvmerge v5.8.0 ('No Sleep / Pillow') built on Sep 2 2012 15:37:04
Writing library : libebml v1.2.3 + libmatroska v1.3.0
Video
ID : 1
Format : AVC
Format/Info : Advanced Video Codec
Format profile : High@L4.1
Format settings, CABAC : Yes
Format settings, ReFrames : 4 frames
Codec ID : V_MPEG4/ISO/AVC
Duration : 50mn 45s
Bit rate : 17.7 Mbps
Width : 1 920 pixels
Height : 1 080 pixels
Display aspect ratio : 16:9
Frame rate mode : Constant
Frame rate : 23.976 fps
Color space : YUV
Chroma subsampling : 4:2:0
Bit depth : 8 bits
Scan type : Progressive
Bits/(Pixel*Frame) : 0.357
Stream size : 6.29 GiB (95%)
Title : BDRip by Ash61
Writing library : x264 core 129 r2245 bc13772
Encoding settings : cabac=1 / ref=4 / deblock=1:-1:-1 / analyse=0x3:0x113 / me=umh / subme=9 / psy=1 / psy_rd=1.00:0.15 / mixed_ref=1 / me_range=32 / chroma_me=1 / trellis=2 / 8x8dct=1 / cqm=0 / deadzone=21,11 / fast_pskip=1 / chroma_qp_offset=-3 / threads=12 / lookahead_threads=2 / sliced_threads=0 / nr=0 / decimate=1 / interlaced=0 / bluray_compat=0 / constrained_intra=0 / bframes=8 / b_pyramid=2 / b_adapt=2 / b_bias=0 / direct=3 / weightb=1 / open_gop=0 / weightp=2 / keyint=250 / keyint_min=23 / scenecut=40 / intra_refresh=0 / rc_lookahead=60 / rc=crf / mbtree=1 / crf=18.0 / qcomp=0.70 / qpmin=10 / qpmax=69 / qpstep=4 / vbv_maxrate=40000 / vbv_bufsize=30000 / crf_max=0.0 / nal_hrd=none / frame-packing=4 / ip_ratio=1.40 / aq=1:0.70
Language : German
Default : Yes
Forced : No
Audio
ID : 2
Format : AC-3
Format/Info : Audio Coding 3
Mode extension : CM (complete main)
Format settings, Endianness : Big
Codec ID : A_AC3
Duration : 50mn 45s
Bit rate mode : Constant
Bit rate : 640 Kbps
Channel(s) : 6 channels
Channel positions : Front: L C R, Side: L R, LFE
Sampling rate : 48.0 KHz
Bit depth : 16 bits
Compression mode : Lossy
Stream size : 232 MiB (3%)
Language : English
Default : Yes
Forced : No
Menu
00:00:00.000 : :1
00:05:32.916 : :2
00:11:50.710 : :3
00:14:10.767 : :4
00:21:40.674 : :5
00:27:54.590 : :6
00:35:02.392 : :7
00:42:50.777 : :8

Гавайи

General
Unique ID : 249523262208613622537180516776517985871 (0xBBB86EA7FE4EC1EAB1BBE0E4D2DE664F)
Complete name : E:\WorldNaturalHeritage(2012)3D-halfOU(Ash61)Eng\WorldNaturalHeritage.USA.Hawaii(2012)3D-halfOU(Ash61)Eng.mkv
Format : Matroska
Format version : Version 2
File size : 6.63 GiB
Duration : 53mn 17s
Overall bit rate : 17.8 Mbps
Movie name : World Natural Heritage: Hawaii (3D) 2012 (by Ash61)
Encoded date : UTC 2013-04-14 10:22:57
Writing application : mkvmerge v5.8.0 ('No Sleep / Pillow') built on Sep 2 2012 15:37:04
Writing library : libebml v1.2.3 + libmatroska v1.3.0
Video
ID : 1
Format : AVC
Format/Info : Advanced Video Codec
Format profile : High@L4.1
Format settings, CABAC : Yes
Format settings, ReFrames : 4 frames
Codec ID : V_MPEG4/ISO/AVC
Duration : 53mn 17s
Bit rate : 16.8 Mbps
Width : 1 920 pixels
Height : 1 080 pixels
Display aspect ratio : 16:9
Frame rate mode : Constant
Frame rate : 23.976 fps
Color space : YUV
Chroma subsampling : 4:2:0
Bit depth : 8 bits
Scan type : Progressive
Bits/(Pixel*Frame) : 0.338
Stream size : 6.26 GiB (94%)
Writing library : x264 core 129 r2245 bc13772
Encoding settings : cabac=1 / ref=4 / deblock=1:-1:-1 / analyse=0x3:0x113 / me=umh / subme=9 / psy=1 / psy_rd=1.00:0.15 / mixed_ref=1 / me_range=32 / chroma_me=1 / trellis=2 / 8x8dct=1 / cqm=0 / deadzone=21,11 / fast_pskip=1 / chroma_qp_offset=-3 / threads=12 / lookahead_threads=2 / sliced_threads=0 / nr=0 / decimate=1 / interlaced=0 / bluray_compat=0 / constrained_intra=0 / bframes=7 / b_pyramid=2 / b_adapt=2 / b_bias=0 / direct=3 / weightb=1 / open_gop=0 / weightp=2 / keyint=250 / keyint_min=23 / scenecut=40 / intra_refresh=0 / rc_lookahead=60 / rc=crf / mbtree=1 / crf=18.0 / qcomp=0.70 / qpmin=10 / qpmax=69 / qpstep=4 / vbv_maxrate=40000 / vbv_bufsize=30000 / crf_max=0.0 / nal_hrd=none / frame-packing=4 / ip_ratio=1.40 / aq=1:0.70
Language : German
Default : Yes
Forced : No
Audio
ID : 2
Format : AC-3
Format/Info : Audio Coding 3
Mode extension : CM (complete main)
Format settings, Endianness : Big
Codec ID : A_AC3
Duration : 53mn 17s
Bit rate mode : Constant
Bit rate : 640 Kbps
Channel(s) : 6 channels
Channel positions : Front: L C R, Side: L R, LFE
Sampling rate : 48.0 KHz
Bit depth : 16 bits
Compression mode : Lossy
Stream size : 244 MiB (4%)
Language : English
Default : Yes
Forced : No
Menu
00:00:00.000 : :1
00:07:35.580 : :2
00:16:48.049 : :3
00:25:39.246 : :4
00:33:47.150 : :5
00:38:44.197 : :6
00:42:05.732 : :7
00:49:17.872 : :8

Йеллоустоун

General
Unique ID : 180625796022308427957395330621208554705 (0x87E3434F4D8350A98374C7E8B7AC6CD1)
Complete name : E:\WorldNaturalHeritage(2012)3D-halfOU(Ash61)Eng\WorldNaturalHeritage.USA.YellowstoneNationalPark(2012)3D-halfOU(Ash61)Eng.mkv
Format : Matroska
Format version : Version 2
File size : 6.88 GiB
Duration : 51mn 41s
Overall bit rate : 19.1 Mbps
Movie name : Всемирное природное наследие: Национальный парк Йеллоустоун / World Natural Heritage: Yellowstone NationalPark (3D) 2012
Encoded date : UTC 2013-06-08 14:37:42
Writing application : mkvmerge v5.8.0 ('No Sleep / Pillow') built on Sep 2 2012 15:37:04
Writing library : libebml v1.2.3 + libmatroska v1.3.0
Video
ID : 1
Format : AVC
Format/Info : Advanced Video Codec
Format profile : High@L4.1
Format settings, CABAC : Yes
Format settings, ReFrames : 4 frames
Codec ID : V_MPEG4/ISO/AVC
Duration : 51mn 41s
Bit rate : 18.0 Mbps
Width : 1 920 pixels
Height : 1 080 pixels
Display aspect ratio : 16:9
Frame rate mode : Constant
Frame rate : 23.976 fps
Color space : YUV
Chroma subsampling : 4:2:0
Bit depth : 8 bits
Scan type : Progressive
Bits/(Pixel*Frame) : 0.363
Stream size : 6.52 GiB (95%)
Title : BDRip by Ash61
Writing library : x264 core 129 r2245 bc13772
Encoding settings : cabac=1 / ref=4 / deblock=1:-1:-1 / analyse=0x3:0x113 / me=umh / subme=9 / psy=1 / psy_rd=1.00:0.15 / mixed_ref=1 / me_range=32 / chroma_me=1 / trellis=2 / 8x8dct=1 / cqm=0 / deadzone=21,11 / fast_pskip=1 / chroma_qp_offset=-3 / threads=12 / lookahead_threads=2 / sliced_threads=0 / nr=0 / decimate=1 / interlaced=0 / bluray_compat=0 / constrained_intra=0 / bframes=8 / b_pyramid=2 / b_adapt=2 / b_bias=0 / direct=3 / weightb=1 / open_gop=0 / weightp=2 / keyint=250 / keyint_min=23 / scenecut=40 / intra_refresh=0 / rc_lookahead=60 / rc=crf / mbtree=1 / crf=18.0 / qcomp=0.70 / qpmin=10 / qpmax=69 / qpstep=4 / vbv_maxrate=40000 / vbv_bufsize=30000 / crf_max=0.0 / nal_hrd=none / frame-packing=4 / ip_ratio=1.40 / aq=1:0.70
Language : English
Default : Yes
Forced : No
Audio
ID : 2
Format : AC-3
Format/Info : Audio Coding 3
Mode extension : CM (complete main)
Format settings, Endianness : Big
Codec ID : A_AC3
Duration : 51mn 41s
Bit rate mode : Constant
Bit rate : 640 Kbps
Channel(s) : 6 channels
Channel positions : Front: L C R, Side: L R, LFE
Sampling rate : 48.0 KHz
Bit depth : 16 bits
Compression mode : Lossy
Stream size : 237 MiB (3%)
Language : English
Default : Yes
Forced : No
Menu
00:00:00.000 : :1
00:06:13.206 : :2
00:13:16.963 : :3
00:19:28.834 : :4
00:22:25.386 : :5
00:28:07.644 : :6
00:36:49.707 : :7
00:43:16.219 : :8

Скриншоты

Колумбия
-Коста-Рика
-Панама
-Гранд Каньон
-Гавайи
-Йеллоустоун

Для оценки 3Д - Анимированные скрины

Колумбия









Коста-Рика









Панама









Гранд Каньон









Гавайи









Йеллоустоун









Благодарности релизеру (14)

Торрент:

Статус:

Размер:

Зарегистрирован   [ 2013-12-29 17:17 ]

проверено

44.65 GB

 
 Мнение о фильме (2)





Замечательная коллекция документалки, а что насчет перевода слышно? Когда его ожидать?
 

Да, нечасто такое замечательное 3D увидишь! Местами прям все как настоящее. Ведь умеют же грамотно снимать, если захотят!...