Торренты   
 
 

 

3 новых трейлера [2013 г., 2014 г., DCPrip, Anamorph OverUnder]

Рейтинг 3D:
12 голосов
8.2
Рейтинг фильма:
12 голосов
7.8
 
Вы должны быть авторизированы,
чтобы ставить оценки


3 новых трейлера
Год выпуска: 2013, 2014
Страна: Россия, США...
Продолжительность: общая 00:06:55--Описание:
1: Превьюшки в 3D - Preview 3D
2: 47 ронинов, трейлер №2 - 47 Ronin
3: ВИЙ 3D, трейлер №2
--Формат 3D: Anamorph OverUnder (левый ракурс верхний)
Качество: DCPrip
Видео: AVC / 1920х1080 / 24 fps /
Аудио: AC3 / 6 ch / 448 Kbps / 48 KHz / Русский

Скриншоты


Media Info Одного из файлов

Код:
Общее
Уникальный идентификатор                 : 229474930658570774200620742945735937982 (0xACA3439865C81F969DBD7F7AC14B8FBE)
Полное имя                               : L:\_3D\3D-Trailers\_2014\_3D\Trailer2_VIY(3D)HalfOU-abq.mkv
Формат                                   : Matroska
Версия формата                           : Version 2
Размер файла                             : 421 Мбайт
Продолжительность                        : 2 м. 49 с.
Общий поток                              : 20,8 Мбит/сек
Дата кодирования                         : UTC 2013-12-29 18:13:18
Программа кодирования                    : mkvmerge v4.0.0 ('The Stars were mine') сборка от Jun  6 2010 16:18:42
Библиотека кодирования                   : libebml v1.0.0 + libmatroska v1.0.0
Видео
Идентификатор                            : 1
Формат                                   : AVC
Формат/Информация                        : Advanced Video Codec
Профиль формата                          : High@L4.1
Параметр CABAC формата                   : Да
Параметр ReFrames формата                : 4 кадра
Идентификатор кодека                     : V_MPEG4/ISO/AVC
Продолжительность                        : 2 м. 49 с.
Битрейт                                  : 20,0 Мбит/сек
Ширина                                   : 1920 пикселей
Высота                                   : 1080 пикселей
Соотношение сторон                       : 16:9
Режим частоты кадров                     : Постоянный
Частота кадров                           : 24,000 кадра/сек
Цветовое пространство                    : YUV
Субдискретизация насыщенности            : 4:2:0
Битовая глубина                          : 8 бит
Тип развёртки                            : Прогрессивная
Бит/(Пиксели*Кадры)                      : 0.401
Размер потока                            : 404 Мбайт (96%)
Библиотека кодирования                   : x264 core 116 r2074 2641b9e
Настройки программы                      : cabac=1 / ref=4 / deblock=1:-3:-3 / analyse=0x3:0x113 / me=umh / subme=9 / psy=1 / psy_rd=1.00:0.15 / mixed_ref=1 / me_range=32 / chroma_me=1 / trellis=2 / 8x8dct=1 / cqm=0 / deadzone=21,11 / fast_pskip=1 / chroma_qp_offset=-3 / threads=6 / sliced_threads=0 / nr=0 / decimate=1 / interlaced=0 / bluray_compat=0 / constrained_intra=0 / bframes=6 / b_pyramid=2 / b_adapt=2 / b_bias=0 / direct=3 / weightb=1 / open_gop=0 / weightp=2 / keyint=240 / keyint_min=24 / scenecut=40 / intra_refresh=0 / rc_lookahead=60 / rc=crf / mbtree=1 / crf=18.0 / qcomp=0.85 / qpmin=0 / qpmax=69 / qpstep=4 / vbv_maxrate=40000 / vbv_bufsize=40000 / crf_max=0.0 / nal_hrd=none / frame-packing=4 / ip_ratio=1.40 / aq=1:0.70
Язык                                     : English
Default                                  : Нет
Forced                                   : Нет
Аудио
Идентификатор                            : 2
Формат                                   : AC-3
Формат/Информация                        : Audio Coding 3
Расширение режима                        : CM (complete main)
Параметр Endianness формата              : Big
Идентификатор кодека                     : A_AC3
Продолжительность                        : 2 м. 49 с.
Вид битрейта                             : Постоянный
Битрейт                                  : 448 Кбит/сек
Каналы                                   : 6 каналов
Расположение каналов                     : Front: L C R, Side: L R, LFE
Частота                                  : 48,0 КГц
Битовая глубина                          : 16 бит
Метод сжатия                             : С потерями
Размер потока                            : 9,05 Мбайт (2%)
Язык                                     : Russian
Default                                  : Да
Forced                                   : Нет
ЗЫ: За предоставление исходников трейлеров в DCP спасибо Secret.
Благодарности релизеру (23)

Торрент:

Статус:

Размер:

Зарегистрирован   [ 2013-12-30 00:58 ]

проверено

873 MB