Торренты   
 
 

 

Микромонстры 3D с Дэвидом Аттенборо (Сезон 1, Серии 1 - 6) / Micro Monsters 3D (S01E01-06) (Дэвид Аттенборо / David Attenborough) [2013, BDRip, half1080p, Anamorph OverUnder]

Рейтинг 3D:
17 голосов
8.5
Рейтинг фильма:
18 голосов
8.6
 
Вы должны быть авторизированы,
чтобы ставить оценки


Микромонстры 3D с Дэвидом Аттенборо (Сезон 1, Серии 1 - 6)
Micro Monsters 3D (S01E01-06)

Год выпуска: 2013
Страна: Великобритания (Sky 3D, Colossus Productions)
Жанр: Документальный
Продолжительность: 2:13:52
Перевод: Одноголосый закадровый - студия «Омикрон» (Евгений Малуха, перевод - Борис Фишер).
Автор и ведущий: Дэвид Аттенборо / David Attenborough-Описание: В этом новом сериале Дэвид Аттенборо показывает изумительную приспособляемость наиболее успешной группы животных на планете. Используя новаторские макроскопические методы съёмки, он беспрецедентно подробно исследует сложное поведение этих очаровательных созданий в сложной среде их жизни, обычно скрытой от человеческого глаза. От армии муравьёв-убийц до пауков, ткущих свои шёлковые ловушки, свирепых скорпионов, со своим парализующим жалом, жуков, стреляющих кипящими химическими веществами в своих врагов, пчёл, общающихся покачивающимся танцем, и насекомых-убийц, одевающих на себя трупы своих жертв.-Серии:
1. Конфликт / Conflict (00:22:04)
2. Хищник / Predator (00:22:50)
3. Ухаживание / Courtship (00:22:15)
4. Воспроизведение / Reproduction (00:21:45)
5. Семья / Family (00:22:34)
6. Колония / Colony (00:22:24)-Доп. инфо: В отличие от БД 2Д с исходником русского звука, здесь концовки 2-й и 3-й серий не оборваны (как и видео).- . .
За исходники видео и звука спасибо , PeterGriffin и меценатам!
-Качество: BDRip (by Ash61)
Контейнер: MKV
Формат 3D: Half OverUnder / Вертикальная анаморфная стереопара
Порядок ракурсов: левый ракурс первый-Видео: AVC / 23,976 fps / 1920х1080p / 18.5; 13.6; 16.2; 13.6; 18.5; 21.5 Mbps

Аудио:
#1 - Русский / AC3 / 48 KHz / 5.1 ch / 640 Kbps (VO - «Омикрон»)
#2 - Английский / AC3 / 48 KHz / 5.1 ch / 640 Kbps (Original - BD 3D)
Субтитры: Отсутствуют

MediaInfo первой серии (остальные отличаются только битрейтом)

General
Unique ID : 174052797891691291747228310040022657149 (0x82F1597B37A986CBAEB78B815DE0A87D)
Complete name : E:\MicroMonsters3D(2013)3D-halfOU(Ash61)Omicron\MicroMonsters3D(E01)Conflict(2013)3D-halfOU(Ash61)Omicron.mkv
Format : Matroska
Format version : Version 2
File size : 3.11 GiB
Duration : 22mn 4s
Overall bit rate : 20.1 Mbps
Movie name : Микромонстры 3Д (Э01) Конфликт / Micro Monsters 3D (E01) Conflict (2013) 3D
Encoded date : UTC 2014-07-30 17:05:24
Writing application : mkvmerge v5.8.0 ('No Sleep / Pillow') built on Sep 2 2012 15:37:04
Writing library : libebml v1.2.3 + libmatroska v1.3.0
Video
ID : 1
Format : AVC
Format/Info : Advanced Video Codec
Format profile : High@L4.1
Format settings, CABAC : Yes
Format settings, ReFrames : 4 frames
Codec ID : V_MPEG4/ISO/AVC
Duration : 22mn 4s
Bit rate : 18.5 Mbps
Width : 1 920 pixels
Height : 1 080 pixels
Display aspect ratio : 16:9
Frame rate mode : Constant
Frame rate : 23.976 fps
Color space : YUV
Chroma subsampling : 4:2:0
Bit depth : 8 bits
Scan type : Progressive
Bits/(Pixel*Frame) : 0.371
Stream size : 2.85 GiB (92%)
Title : BDRip by Ash61
Writing library : x264 core 129 r2245 bc13772
Encoding settings : cabac=1 / ref=4 / deblock=1:-3:-3 / analyse=0x3:0x113 / me=umh / subme=10 / psy=1 / psy_rd=1.00:0.15 / mixed_ref=1 / me_range=32 / chroma_me=1 / trellis=2 / 8x8dct=1 / cqm=0 / deadzone=21,11 / fast_pskip=1 / chroma_qp_offset=-3 / threads=12 / lookahead_threads=2 / sliced_threads=0 / nr=0 / decimate=1 / interlaced=0 / bluray_compat=0 / constrained_intra=0 / bframes=10 / b_pyramid=2 / b_adapt=2 / b_bias=0 / direct=3 / weightb=1 / open_gop=0 / weightp=2 / keyint=250 / keyint_min=23 / scenecut=40 / intra_refresh=0 / rc_lookahead=60 / rc=crf / mbtree=1 / crf=17.0 / qcomp=0.70 / qpmin=0 / qpmax=69 / qpstep=4 / vbv_maxrate=40000 / vbv_bufsize=30000 / crf_max=0.0 / nal_hrd=none / frame-packing=4 / ip_ratio=1.40 / aq=1:0.70
Language : English
Default : Yes
Forced : No
Audio #1
ID : 2
Format : AC-3
Format/Info : Audio Coding 3
Mode extension : CM (complete main)
Format settings, Endianness : Big
Codec ID : A_AC3
Duration : 22mn 4s
Bit rate mode : Constant
Bit rate : 640 Kbps
Channel(s) : 6 channels
Channel positions : Front: L C R, Side: L R, LFE
Sampling rate : 48.0 KHz
Bit depth : 16 bits
Compression mode : Lossy
Stream size : 101 MiB (3%)
Title : Одноголосый закадровый - студия «Омикрон»
Language : Russian
Default : Yes
Forced : No
Audio #2
ID : 3
Format : AC-3
Format/Info : Audio Coding 3
Mode extension : CM (complete main)
Format settings, Endianness : Big
Codec ID : A_AC3
Duration : 22mn 4s
Bit rate mode : Constant
Bit rate : 640 Kbps
Channel(s) : 6 channels
Channel positions : Front: L C R, Side: L R, LFE
Sampling rate : 48.0 KHz
Bit depth : 16 bits
Compression mode : Lossy
Stream size : 101 MiB (3%)
Title : Original - BD 3D
Language : English
Default : No
Forced : No
Menu
00:00:00.000 : :1
00:02:10.881 : :2
00:05:09.392 : :3
00:10:51.693 : :4
00:14:30.453 : :5
00:21:18.611 : :6

Для оценки 3Д - Анимированные скрины


















31.07.2014. Релиз обновлён - добавлена русская дорога.
Желающие, скачайте заново торрент-файл.
Благодарности релизеру (53)

Торрент:

Статус:

Размер:

Зарегистрирован   [ 2014-07-31 18:28 ]

проверено

17.43 GB

 
 Мнение о фильме (1)





Спасибо! Отличный познавательный документальный фильм