Торренты   
 
 


Самолеты / Planes (Клэй Холл) [2013 г., мультфильм, комедия, приключения, семейный, BDRip 1080p] Anamorph SideBySide

Рейтинг 3D:
3 голосов
5.7
Рейтинг фильма:
4 голосов
6.2
 
Вы должны быть авторизированы,
чтобы ставить оценки


Самолеты / Planes
Год выпуска: 2013
Страна: США
Жанр: мультфильм, комедия, приключения, семейный,
Продолжительность: 01:31:35
Перевод: Дубляж
Режиссер: Клэй Холл
Продюссер: Трэйси Балтазор, Тони Косанелла, Джон Лассетер
Сценарий: Джеффри М. Ховард, Джон Лассетер, Клэй Холл
Бюджет: $50 000 000
Премьера в мире: 5 августа 2013

Роли озвучивали: Дейн Кук, Стейси Кич, Брэд Гэррет, Тери Хэтчер, Джулия Луис-Дрейфус, Приянка Чопра, Джон Клиз, Седрик «Развлекатель», Карлос Алазраки, Роджер Крэйг Смит, Энтони Эдвардс, Вэл Килмер, Синбад, Гэбриел Иглесиас, Брент Мусбургер, Дэнни Манн
Роли дублировали: Константин Крюков, Нонна Гришаева, Равшана Куркова, Алексей Чумаков, Александр Ноткин,
Описание: Дасти Полейполе — скромный трудяга-самолет, работающий сельскохозяйственным распылителем на заштатном провинциальном аэродроме. Однако это не мешает ему мечтать о том, чтобы однажды принять участие в кругосветных гонках самых быстрых самолетов. Одна незадача — Дасти панически боится большой высоты. Поэтому, когда волею случая он все же попадает в число участников отборочного тура воздушных соревнований, ему приходится искать помощи у ветерана военно-морской авиации, отставного истребителя Шкипера. С помощью мудрого наставника Дасти сможет преодолеть свои слабости и бросить вызов надменному чемпиону Рипслингеру, а весь мир будет с замиранием сердца следить за гонкой в небесах!..
Доп. информация: Формат 3D: Anamorph SideBySide / Горизонтальная анаморфная стереопара
Порядок ракурсов: левый ракурс первый
Качество: BDRip 1080p
Формат: MKV
Видео кодек: H.264
Аудио кодек: AC3
Видео: x264 / 23,976 fps / 1920 x 1080 (16:9) / 5315 Kbps / 0.107 bit/pixel
Аудио#1: AC3 / 48 KHz / 5.1 ch / 384 kbps / Русский дубляж
Аудио#2: AC3 / 48 KHz / 5.1 ch / 448 kbps / Английский original

Скриншоты




MediaInfo

Общее
Уникальный идентификатор : 223833825113987628608832881897503808006 (0xA864D39E60438E66A033673059915A06)
Полное имя : D:Planes.2013.3D.1080p.BluRay.x264.HSBS.mkv
Формат : Matroska
Версия формата : Version 4 / Version 2
Размер файла : 3,93 Гбайт
Продолжительность : 1 ч. 31 м.
Общий поток : 6145 Кбит/сек
Название фильма : Самолеты / Planes.2013.3D.1080p.BluRay.x264 / HSBS
Дата кодирования : UTC 2014-01-06 13:50:27
Программа кодирования : mkvmerge v6.2.0 ('Promised Land') built on Apr 28 2013 12:22:01
Библиотека кодирования : libebml v1.3.0 + libmatroska v1.4.0
Видео
Идентификатор : 1
Формат : AVC
Формат/Информация : Advanced Video Codec
Профиль формата : High@L4.1
MultiView_Count : 2
MultiView_Layout : Side by Side (left eye first)
Параметр CABAC формата : Да
Параметр ReFrames формата : 4 кадра
Идентификатор кодека : V_MPEG4/ISO/AVC
Продолжительность : 1 ч. 31 м.
Битрейт : 5315 Кбит/сек
Ширина : 1920 пикселей
Высота : 1080 пикселей
Соотношение сторон : 16:9
Режим частоты кадров : Постоянный
Частота кадров : 23,976 кадра/сек
Цветовое пространство : YUV
Субдискретизация насыщенности : 4:2:0
Битовая глубина : 8 бит
Тип развёртки : Прогрессивная
Бит/(Пиксели*Кадры) : 0.107
Размер потока : 3,32 Гбайт (84%)
Заголовок : Planes.2013.3D.1080p.BluRay.x264 ( HSBS)
Библиотека кодирования : x264 core 140 r2377 1ca7bb9
Настройки программы : cabac=1 / ref=4 / deblock=1:0:0 / analyse=0x3:0x133 / me=umh / subme=7 / psy=1 / psy_rd=1.00:0.00 / mixed_ref=1 / me_range=16 / chroma_me=1 / trellis=1 / 8x8dct=1 / cqm=0 / deadzone=21,11 / fast_pskip=0 / chroma_qp_offset=-2 / threads=12 / lookahead_threads=2 / sliced_threads=0 / nr=0 / decimate=1 / interlaced=fake / bluray_compat=0 / constrained_intra=0 / bframes=3 / b_pyramid=2 / b_adapt=1 / b_bias=0 / direct=3 / weightb=1 / open_gop=0 / weightp=2 / keyint=240 / keyint_min=23 / scenecut=40 / intra_refresh=0 / rc_lookahead=40 / rc=2pass / mbtree=1 / bitrate=5315 / ratetol=1.0 / qcomp=0.60 / qpmin=10 / qpmax=69 / qpstep=4 / cplxblur=20.0 / qblur=0.5 / ip_ratio=1.40 / aq=1:1.00
Язык : English
Default : Да
Forced : Нет
Аудио #1
Идентификатор : 2
Формат : AC-3
Формат/Информация : Audio Coding 3
Расширение режима : CM (complete main)
Параметр Endianness формата : Big
Идентификатор кодека : A_AC3
Продолжительность : 1 ч. 31 м.
Вид битрейта : Постоянный
Битрейт : 384 Кбит/сек
Каналы : 6 каналов
Расположение каналов : Front: L C R, Side: L R, LFE
Частота : 48,0 КГц
Битовая глубина : 16 бит
Метод сжатия : С потерями
Размер потока : 252 Мбайт (6%)
Заголовок : Dub
Язык : Russian
Default : Да
Forced : Нет
Аудио #2
Идентификатор : 3
Формат : AC-3
Формат/Информация : Audio Coding 3
Расширение режима : CM (complete main)
Параметр Endianness формата : Big
Идентификатор кодека : A_AC3
Продолжительность : 1 ч. 31 м.
Вид битрейта : Постоянный
Битрейт : 448 Кбит/сек
Каналы : 6 каналов
Расположение каналов : Front: L C R, Side: L R, LFE
Частота : 48,0 КГц
Битовая глубина : 16 бит
Метод сжатия : С потерями
Размер потока : 293 Мбайт (7%)
Заголовок : Original
Язык : English
Default : Нет
Forced : Нет
Меню
00:00:00.000 : en:00:00:00.000
00:04:41.990 : en:00:04:41.990
00:07:23.234 : en:00:07:23.234
00:09:04.293 : en:00:09:04.293
00:14:38.085 : en:00:14:38.085
00:17:30.549 : en:00:17:30.549
00:24:58.872 : en:00:24:58.872
00:30:10.767 : en:00:30:10.767
00:36:28.185 : en:00:36:28.185
00:40:37.517 : en:00:40:37.517
00:42:51.193 : en:00:42:51.193
00:48:07.801 : en:00:48:07.801
00:51:37.802 : en:00:51:37.802
00:56:22.378 : en:00:56:22.378
01:00:06.143 : en:01:00:06.143
01:01:59.923 : en:01:01:59.923
01:07:05.312 : en:01:07:05.312
01:10:13.041 : en:01:10:13.041
01:12:27.133 : en:01:12:27.133
01:16:26.914 : en:01:16:26.914
Благодарности релизеру (5)

Торрент:

Статус:

Размер:

Зарегистрирован   [ 2014-01-06 20:20 ]

© закрыто правообладателем

3.93 GB