Торренты   
 
 

 

Best of 3D (Vol. 1-9) [2012-2013, BDRip, half1080p, Anamorph OverUnder]

Рейтинг 3D:
15 голосов
8.3
Рейтинг фильма:
13 голосов
6.4
 
Вы должны быть авторизированы,
чтобы ставить оценки


Best of 3D (Vol. 1-9)
Год выпуска: 2012
Страна: Германия (3D Content Hub)
Жанр: Видовой, Документальный
Продолжительность: ~ 05 час 44 мин
Перевод: В основном не требуется
Описание: Почти все документалки и ролики с трёх дисков: Best of 3D - Vol. 1-3, Vol. 4-6, Vol. 7-9
Более подробно внизу под спойлером.
Доп. инфо: Название дисков специально не стал писать по-русски, чтобы народ не "вёлся" - обычные немецкие документалки и ролики. Хотя достаточно красивого и интересного, но есть и весьма проходное (имхо).- -Качество: BDRip (by Ash61)
Контейнер: MKV
Формат 3D: Anamorph OverUnder / Вертикальная анаморфная стереопара
Порядок ракурсов: левый ракурс первый-Видео: AVC / 23,976 fps / 1920х1080p / Битрейты внизу под спойлером
Аудио: AC3 / 48 KHz / Остальное внизу под спойлером
Субтитры: Отсутствуют

MediaInfo одного из файлов (остальные отличаются незначительно, отличия внизу под спойлером)

General
Unique ID : 220879846082189266557518886957213737132 (0xA62BE9353523C99AA0746D946F22E0AC)
Complete name : E:\BestOf3D.Vol.1-9\4.ASelectionOfTheBest3D.ExistingToDate(2012)3D-halfOU(Ash61).mkv
Format : Matroska
Format version : Version 2
File size : 1.31 GiB
Duration : 22mn 13s
Overall bit rate : 8 443 Kbps
Movie name : Best of 3D (Vol.4-6) A Selection of the Best 3D. Existing to Date (2012) 3D
Encoded date : UTC 2014-01-06 13:10:34
Writing application : mkvmerge v5.8.0 ('No Sleep / Pillow') built on Sep 2 2012 15:37:04
Writing library : libebml v1.2.3 + libmatroska v1.3.0
Video
ID : 1
Format : AVC
Format/Info : Advanced Video Codec
Format profile : High@L4.1
Format settings, CABAC : Yes
Format settings, ReFrames : 4 frames
Codec ID : V_MPEG4/ISO/AVC
Duration : 22mn 13s
Bit rate : 7 635 Kbps
Width : 1 920 pixels
Height : 1 080 pixels
Display aspect ratio : 16:9
Frame rate mode : Constant
Frame rate : 23.976 fps
Color space : YUV
Chroma subsampling : 4:2:0
Bit depth : 8 bits
Scan type : Progressive
Bits/(Pixel*Frame) : 0.154
Stream size : 1.19 GiB (90%)
Title : BDRip by Ash61
Writing library : x264 core 129 r2245 bc13772
Encoding settings : cabac=1 / ref=4 / deblock=1:-1:-1 / analyse=0x3:0x113 / me=umh / subme=10 / psy=1 / psy_rd=1.00:0.15 / mixed_ref=1 / me_range=32 / chroma_me=1 / trellis=2 / 8x8dct=1 / cqm=0 / deadzone=21,11 / fast_pskip=1 / chroma_qp_offset=-3 / threads=12 / lookahead_threads=2 / sliced_threads=0 / nr=0 / decimate=1 / interlaced=0 / bluray_compat=0 / constrained_intra=0 / bframes=10 / b_pyramid=2 / b_adapt=2 / b_bias=0 / direct=3 / weightb=1 / open_gop=0 / weightp=2 / keyint=250 / keyint_min=23 / scenecut=40 / intra_refresh=0 / rc_lookahead=60 / rc=crf / mbtree=1 / crf=18.0 / qcomp=0.70 / qpmin=10 / qpmax=69 / qpstep=4 / vbv_maxrate=40000 / vbv_bufsize=30000 / crf_max=0.0 / nal_hrd=none / frame-packing=4 / ip_ratio=1.40 / aq=1:0.70
Default : Yes
Forced : No
Audio
ID : 2
Format : AC-3
Format/Info : Audio Coding 3
Mode extension : CM (complete main)
Format settings, Endianness : Big
Codec ID : A_AC3
Duration : 22mn 13s
Bit rate mode : Constant
Bit rate : 640 Kbps
Channel(s) : 6 channels
Channel positions : Front: L C R, Side: L R, LFE
Sampling rate : 48.0 KHz
Bit depth : 16 bits
Compression mode : Lossy
Stream size : 102 MiB (8%)
Title : Music
Default : Yes
Forced : No

Скриншоты (с каждого файла по одному скрину)

Best of 3D Vol. 7-9

Для оценки 3Д - Анимированные скрины

Best of 3D Vol. 1-3













Best of 3D Vol. 4-6














Best of 3D Vol. 7-9











Содержание

Best of 3D Vol. 1-3 (2012):
1. Diving (Explore the World) (30:01) (дайвинг)
Video: 22.4 Mbps
Audio: 2 ch / 448 Kbps
1. SandBoarding (10:04) (сэндбординг)
Video: 9.2 Mbps
Audio: 2 ch / 448 Kbps
1. SkateBoarding (10:04) (скейтбординг)
Video: 17.7 Mbps
Audio: 2 ch / 448 Kbps
2. 3D Builder (06:03)
Video: 4.0 Mbps
Audio: 2 ch / 448 Kbps
2. Alligator Kingdom (28:03) (Царство аллигаторов)
Video: 19.0 Mbps
Audio: English / 2 ch / 448 Kbps
2. Easter Island (05:49) (остров Пасхи)
Video: 7.3 Mbps
Audio: 6 ch / 640 Kbps
2. Venice (15:52) (Венеция)
Video: 6.1 Mbps
Audio: 2 ch / 448 Kbps
3. Case Love Gangs (20:51) (русский мульт)
Video: 10.8 Mbps
Audio: 6 ch / 640 Kbps
3. Little Postman (04:38) (польский мульт)
Video: 6.0 Mbps
Audio: 2 ch / 448 Kbps
3. Scarecrow (05:45) (польский мульт)
Video: 9.4 Mbps
Audio: 2 ch / 448 Kbps
3-Bonus - DualPhasenStahl (03:52)
Video: 22.4 Mbps
Audio: 6 ch / 640 Kbps
3-Bonus - Mercedes C63 AMG (17:48) (рассказ об автомобиле)
Video: 8.5 Mbps
Audio: English / 2 ch / 448 Kbps
3-Bonus - Rise (04:31)
Video: 4.2 Mbps
Audio: 6 ch / 640 Kbps-Best of 3D Vol. 4-6 (2012):
4. A Selection of the Best 3D. Existing to Date (22:13)
Video: 7.6 Mbps
Audio: 6 ch / 640 Kbps
4. Cosmic Journey (22:02) (о телескопах Хаббл и Кассини, и снятое ими)
Video: 2.5 Mbps
Audio: English / 6 ch / 640 Kbps
4. Deus Ex Homine (04:47)
Video: 12.5 Mbps
Audio: 2 ch / 448 Kbps
4. Ecodingo (05:40) (фантастический мир, компьютерная графика)
Video: 14.9 Mbps
Audio: 6 ch / 640 Kbps
4. Fire Baloons (03:52) (Воздушные шары)
Video: 15.2 Mbps
Audio: 6 ch / 640 Kbps
4. Hooked (05:38) (латышский мульт)
Video: 5.9 Mbps
Audio: 6 ch / 640 Kbps
4. Nuts & Robbers (04:23) (прикольный мульт)
Video: 6.7 Mbps
Audio: 6 ch / 640 Kbps
4. The View in America (13:28) (Виды в Америке)
Video: 8.5 Mbps
Audio: 6 ch / 640 Kbps
6. Blade Walker (02:41) (альпинисты)
Video: 19.8 Mbps
Audio: 6 ch / 640 Kbps
6. Level 3D (02:53)
Video: 7.5 Mbps
Audio: 6 ch / 640 Kbps
6. Magic Touch (09:03) (фокусник)
Video: 6.6 Mbps
Audio: 6 ch / 640 Kbps
6. Shine (02:57) (кукольная песня)
Video: 4.8 Mbps
Audio: 6 ch / 640 Kbps
6. Switch Craft (03:29)
Video: 4.5 Mbps
Audio: 6 ch / 640 Kbps
6-Bonus - Time Traveller Guides 3D (06:32) (Путешествие во времени. Слайд-шоу старых фотографий)
Video: 4.1 Mbps
Audio: English / 6 ch / 640 Kbps-Best of 3D Vol. 7-9 (2013):
7. Holotronica Speedway (07:03) (компьютерная графика)
Video: 8.7 Mbps
Audio: 6 ch / 640 Kbps
8. Atmosphere (05:34)(Атмосфера)
Video: 6.1 Mbps
Audio: 6 ch / 640 Kbps
8. Big Mouth (05:39)
Video: 16.9 Mbps
Audio: 2 ch / 448 Kbps
8. Black Forest. Railways (20:53) (Железные дороги. Паровозы)
Video: 14.8 Mbps
Audio: 6 ch / 640 Kbps
8. Die Welt Der Falken (01:03:50) (Мир соколов)
Video: 9.4 Mbps
Audio: German / 6 ch / 640 Kbps
8. Unterwasserwelt Kaliforniens (03:53) (Подводный мир Калифорнии)
Video: 10.7 Mbps
Audio: 6 ch / 640 Kbps
9. Aragon (10:16)
Video: 9.6 Mbps
Audio: 6 ch / 640 Kbps
9. Fly High Show Taekwon (03:07) (тайквандо-шоу)
Video: 7.5 Mbps
Audio: 6 ch / 640 Kbps
9. Helsinki (09:34) (Хельсинки)
Video: 13.7 Mbps
Audio: 6 ch / 640 Kbps
9. Mars Views 3D (21:24) (Марсианские виды)
Video: 5.8 Mbps
Audio: 6 ch / 640 Kbps
9-Bonus - Höllenritte (12:52) (Американские горки)
Video: 21.2 Mbps
Audio: 6 ch / 640 Kbps
Благодарности релизеру (35)

Торрент:

Статус:

Размер:

Зарегистрирован   [ 2014-01-08 02:34 ]

проверено

35.86 GB

 
 Мнение о фильме (3)





Как на счет вылетов? Есть?
 

не вижу комменты,значит так се
 

Пожалуйста встаньте на раздачу. Скорость мизерная, опускается до нуля.