Торренты   
 
 


Metallica: Сквозь невозможное / Metallica: Through the Never [2013, Anamorph SideBySide]

Рейтинг 3D:
80 голосов
6.7
Рейтинг фильма:
80 голосов
6.7
 
Вы должны быть авторизированы,
чтобы ставить оценки


Metallica: Сквозь невозможное Metallica Through the Never
Год выпуска: 2013
Страна: США
Жанр: мюзикл, приключения, музыка
Продолжительность: 01:32:45
Описание: Участник технической команды группы Metallica получает задание — привезти сумку, содержимое которой необходимо группе для выступления. Сопровождая таинственную сумку он попадает в невероятные передряги! Картина представляет собой смесь игрового фильма и концерта.
Формат 3D: Anamorph SideBySide
Порядок ракурсов: Параллельная пара

Media Info

General
Complete name :Metallica.Through.The.Never.3D.2013.1080p.BluRay.Half-SBS.x264.mkv
Format : Matroska
File size : 10.6 GiB
Duration : 1h 23mn
Overall bit rate : 18.1 Mbps
Movie name : THROUGH_THE_NEVER_3D.Title20.BlurayRip
Encoded date : UTC 2014-01-13 01:02:33
Writing application : mkvmerge v4.5.0 ('Speed of Light') сборка от Feb 6 2011 12:51:39
Writing library : libebml v1.2.0 + libmatroska v1.1.0
Video #1
ID : 1
Format : AVC
Format/Info : Advanced Video Codec
Format profile : High@L4.1
Format settings, CABAC : Yes
Format settings, ReFrames : 2 frames
Format settings, GOP : M=2, N=3
Muxing mode : Container profile=Unknown@4.1
Codec ID : V_MPEG4/ISO/AVC
Duration : 1h 23mn
Bit rate : 16.4 Mbps
Width : 1 920 pixels
Height : 800 pixels
Display aspect ratio : 2.40:1
Frame rate : 23.976 fps
Color space : YUV
Chroma subsampling : 4:2:0
Bit depth : 8 bits
Scan type : Progressive
Bits/(Pixel*Frame) : 0.447
Stream size : 9.60 GiB (91%)
Writing library : x264 core
Color primaries : BT.709-5, BT.1361, IEC 61966-2-4, SMPTE RP177
Transfer characteristics : BT.709-5, BT.1361
Matrix coefficients : BT.709-5, BT.1361, IEC 61966-2-4 709, SMPTE RP177
Audio #2
ID : 2
Format : AC-3
Format/Info : Audio Coding 3
Mode extension : CM (complete main)
Codec ID : A_AC3
Duration : 1h 23mn
Bit rate mode : Constant
Bit rate : 640 Kbps
Channel(s) : 6 channels
Channel positions : Front: L C R, Side: L R, LFE
Sampling rate : 48.0 KHz
Stream size : 383 MiB (4%)
Audio #3
ID : 3
Format : AC-3
Format/Info : Audio Coding 3
Mode extension : CM (complete main)
Codec ID : A_AC3
Duration : 1h 23mn
Bit rate mode : Constant
Bit rate : 640 Kbps
Channel(s) : 2 channels
Channel positions : Front: L R
Sampling rate : 48.0 KHz
Stream size : 383 MiB (4%)

Скриншоты

Остальные раздачи этого фильма (5)
Благодарности релизеру (16)

Торрент:

Статус:

Размер:

Зарегистрирован   [ 2014-01-13 19:47 ]

T временная

10.56 GB

 
 Мнение о фильме (23)

1, 2  След.






Металлику уважаю, но не фанател никогда. Фильм посмотрел с удовольствием. Шоу вселенского уровня! Хэтфилд в фантастической физической и голосовой форме, даже не ожидал от старичков такого отжига, ни скуки, ни усталости, настоящие матёрые поджарые волчищи, чистый драйв!!!
 

Поддерживаю целиком и полностью-однозначно в коллекцию!
 

Я думаю стоит расценивать "фильм" не как фильм, а как постановочный концерт.
А как концерт - все на высшем уровне!
 

Сам фильм-концерт класс, но 3д, как эффект присутствия, почти никакое, что-то Ларс с 3д прогадал. У Скорпов эффект присутствия в десятки раз лучше, ИМХО.
 

согласен с предыдущим оратором!!!;)
 

Все отлично,давно ждал
 

Хороший концерт, 3D нормально
 

Все отлично, 3D на уровне, в коллекцию однозначно
 

Старички жгут.Учитесь молодежь:).В коллекцию.
 

Хороший концерт мне понравился 3D норма !!! однозначно в колекцыю !!!
 

отличный концерт группы всем поклонникам советую
 

Спасибо! Понравилось!
 

Спасибо! Один раз посмотреть можно. Шоу снято хорошо. А насчет музыки, так себе. Но каждому свое.
 

Отличное шоу
 

красиво снят, хорошие спец эфекты, рекомендую.
 

Как фанат творчества, творений этой команды с удовольствием удаляю сей 3D-кино"шедевр". Автору раздачи, естественно, низкий поклон. Качество супер!
 

фильм суперский!!!!!!!! металлика рулит!!!!! 11 июня еду смотреть в варшаву металлику живьём) 3 дэ отдыхает!!)
 

Раздача хороша, но, к сожалению, на WDTV Live Hub вылетает каждые 40 секунд. Придется подыскать другую,, а хотелось именно SbS (некоторые телевизоры неправильно накладывают OU, если те содержат черные полосы).
 

Вот так бы Dimmu Borgir закатали!!!!!
 

не ну где с переводом? на мови слушать не хочу! патриотизм не позволяет!!!
 

Страница 1 из 2

1, 2  След.