Торренты   
 
 


Metallica: Сквозь невозможное / Metallica Through the Never (Нимрод Антал) [2013 г., Anamorph OverUnder]

Рейтинг 3D:
80 голосов
6.7
Рейтинг фильма:
80 голосов
6.7
 
Вы должны быть авторизированы,
чтобы ставить оценки



Metallica: Сквозь невозможное / Metallica Through the Never
Год выпуска: 2013
Страна: Picturehouse Entertainment (США)
Жанр: мюзикл, музыка, приключения
Продолжительность: 01:32:45
Перевод: Отсутствует
Режиссер: Нимрод Антал
В ролях: Дэйн ДеХаан, Джеймс Хетфилд, Ларс Ульрих, Кирк Хеммет, Роберт Трухильо, Кайл Томсон, Тоби Харгрейв, МакКензи Грэй, Питер Брайант, Хротгар Мэтьюз
Описание: Участник технической команды группы Metallica получает задание — привезти сумку, содержимое которой необходимо группе для выступления. Сопровождая таинственную сумку, он попадает в невероятные передряги. Картина представляет собой смесь игрового фильма и концерта.
Треклист:
01. The Ecstasy of Gold
02. Creeping Death
03. For Whom the Bell Tolls
04. Fuel
05. Ride the Lightning
06. One
07. The Memory Remains
08. Wherever I May Roam
09. Cyanide
10. ...And Justice for All
11. Master of Puppets
12. Battery
13. Nothing Else Matters
14. Enter Sandman
15. Hit the Lights
16. Orion
Доп. информация:
• Голландскому режиссеру Антону Корбейну предлагали возглавить проект, но он был вынужден отказаться из-за несогласованности графиков съемок с его фильмом «Особо опасен» (2013).
• В самом начале фильма парень падает со скейта. Интересен тот факт, что сам Джеймс Хетфилд не раз ломал себе руку из-за данного средства передвижения, из-за чего теперь концертный контракт содержит пункт «NO SKATEBOARDING».
• Сценарий фильма занимает всего лишь 15 страниц, и в нём почти нет диалогов.
Качество: BDrip
Контейнер: MKV
Формат 3D: Anamorph OverUnder / Вертикальная анаморфная стереопара
Видео кодек: Н.264
Аудио кодек: AC-3
Видео: AVC, High@L4.1, 1920х1080, 23,976 кадра/сек, 12,3 Мбит/сек
Аудио:
Английский / AC3 / 48 KHz / 5.1 ch / 640 Kbps (Original - BD 3D)
DTS-HD 5.1 - http://torrents3d.ru/article/4697#74579

Скриншоты


Media Info

Код:
Общее
Уникальный идентификатор                 : 247353484512947735596951039312800879839 (0xBA168C5B3D41F3C7BF0D6788CC1D94DF)
Полное имя                               : H:\Metallica.ThroughTheNever.3D.2013.BDrip.Half.OU.x264.AC3.(itsamna).mkv
Формат                                   : Matroska
Версия формата                           : Version 4 / Version 2
Размер файла                             : 8,53 Гбайт
Продолжительность                        : 1 ч. 32 м.
Общий поток                              : 13,2 Мбит/сек
Название фильма                          : Metallica Through the Never 3D rip by itsamna aka StarStranger (release 3D-RuGroup)
Дата кодирования                         : UTC 2014-01-14 15:27:56
Программа кодирования                    : mkvmerge v6.3.0 ('You can't stop me!') built on Jul 19 2013 16:27:38
Библиотека кодирования                   : libebml v1.3.0 + libmatroska v1.4.1
Видео
Идентификатор                            : 1
Формат                                   : AVC
Формат/Информация                        : Advanced Video Codec
Профиль формата                          : High@L4.1
Параметр CABAC формата                   : Да
Параметр ReFrames формата                : 4 кадра
Идентификатор кодека                     : V_MPEG4/ISO/AVC
Продолжительность                        : 1 ч. 32 м.
Битрейт                                  : 12,3 Мбит/сек
Ширина                                   : 1920 пикселей
Высота                                   : 1080 пикселей
Соотношение сторон                       : 16:9
Режим частоты кадров                     : Постоянный
Частота кадров                           : 23,976 кадра/сек
Цветовое пространство                    : YUV
Субдискретизация насыщенности            : 4:2:0
Битовая глубина                          : 8 бит
Тип развёртки                            : Прогрессивная
Бит/(Пиксели*Кадры)                      : 0.247
Размер потока                            : 7,94 Гбайт (93%)
Библиотека кодирования                   : x264 core 130 r2273 b3065e6
Настройки программы                      : cabac=1 / ref=4 / deblock=1:-3:-3 / analyse=0x3:0x133 / me=umh / subme=10 / psy=1 / psy_rd=1.00:0.15 / mixed_ref=1 / me_range=32 / chroma_me=1 / trellis=2 / 8x8dct=1 / cqm=0 / deadzone=21,11 / fast_pskip=0 / chroma_qp_offset=-3 / threads=12 / lookahead_threads=2 / sliced_threads=0 / nr=0 / decimate=1 / interlaced=0 / bluray_compat=0 / constrained_intra=0 / bframes=8 / b_pyramid=2 / b_adapt=2 / b_bias=0 / direct=3 / weightb=1 / open_gop=0 / weightp=2 / keyint=250 / keyint_min=23 / scenecut=40 / intra_refresh=0 / rc_lookahead=60 / rc=crf / mbtree=1 / crf=18.0 / qcomp=0.60 / qpmin=0 / qpmax=69 / qpstep=4 / vbv_maxrate=50000 / vbv_bufsize=62500 / crf_max=0.0 / nal_hrd=none / ip_ratio=1.40 / aq=1:0.90
Default                                  : Да
Forced                                   : Нет
Аудио
Идентификатор                            : 2
Формат                                   : AC-3
Формат/Информация                        : Audio Coding 3
Расширение режима                        : CM (complete main)
Параметр Endianness формата              : Big
Идентификатор кодека                     : A_AC3
Продолжительность                        : 1 ч. 32 м.
Вид битрейта                             : Постоянный
Битрейт                                  : 640 Кбит/сек
Каналы                                   : 6 каналов
Расположение каналов                     : Front: L C R, Side: L R, LFE
Частота                                  : 48,0 КГц
Битовая глубина                          : 16 бит
Метод сжатия                             : С потерями
Размер потока                            : 425 Мбайт (5%)
Язык                                     : English
Default                                  : Да
Forced                                   : Нет
Меню
00:00:00.000                             : :Introduction
00:03:48.228                             : :The Ecstasy of Gold
00:05:17.317                             : :Creeping Death
00:10:56.155                             : :For Whom the Bell Tolls
00:15:01.359                             : :Fuel
00:19:34.965                             : :Ride the Lightning
00:25:41.498                             : :One
00:34:43.957                             : :The Memory Remains
00:39:51.931                             : :Wherever I May Roam
00:41:25.274                             : :Cyanide
00:47:09.076                             : :...And Justice for All
00:55:25.697                             : :Master of Puppets
01:03:46.239                             : :Battery
01:07:02.060                             : :Nothing Else Matters
01:12:45.486                             : :Enter Sandman
01:19:27.429                             : :Hit the Lights
01:24:26.937                             : :Orion
--Релиз группы:

Проверено на встроенном плейере ТВ LG 42LW4500
--
Остальные раздачи этого фильма (5)
Благодарности релизеру (32)

Торрент:

Статус:

Размер:

Зарегистрирован   [ 2014-01-14 20:34 ]

проверено

8.53 GB

 
 Мнение о фильме (23)

Пред.  1, 2






....и тут польско-венгерский понос вместо перевода
 

udaff, где можно скачать скорпов в 3д?
 
евгений васильевич123 Профиль 25-Окт-2015 15:20

евгений васильевич123, а Поиск на трекере для кого?
 

Страница 2 из 2

Пред.  1, 2