Торренты   
 
 


Галапагосы с Дэвидом Аттенборо / Galapagos 3D [2013, BDRip, half1080, Anamorph OverUnder] VO

Рейтинг 3D:
5 голосов
6.6
Рейтинг фильма:
5 голосов
7.2
 
Вы должны быть авторизированы,
чтобы ставить оценки


Галапагосы с Дэвидом Аттенборо
Galapagos 3D

Год выпуска: 2013
Страна: Великобритания (Colossus Productions, Sky TV)
Жанр: Документальный
Продолжительность: 02:36:30
Озвучка: Любительская одноголосая закадровая (Юрий Онищенко, перевод - Logos71)
Режиссер: Мартин Уильямс / Martin Williams
В фильме снимались: Дэвид Аттенборо (автор и рассказчик), Саймон Де Гланвиль, Энтони Геффен, Алекс Хемингуэй, Robert Hollingworth, Мартин Уильямс, Пол Уильямс-Описание: Галапагосские острова — один из самых необычных и красивых архипелагов, место на Земле, где обитают удивительные существа, способные поразить даже бывалых путешественников и ученых. Когда-то эти острова служили убежищем для пиратских судов, а затем стали национальным природным парком, где животные до сих пор не боятся человека. Совершите путешествие на Галапагосы и погрузитесь в волшебный мир островов, которые вдохновили Чарльза Дарвина на идею теории эволюции.Серии:1. Происхождение / Origin (00:52:10)Галапагосы, место полное чудес. Острова, рождённые в океане из огня около 4 млн. лет назад и населённые обитателями, которые кардинально изменили наше представление о возникновении жизни на земле.2. Адаптация / Adaptation (00:52:10)На бескрайних просторах Тихого Океана затерялось место, не похожее ни на какое другое. Чарующие вулканические острова, которые приходятся домом целым колониям удивительных животных и растений. Здесь эволюционные процессы протекают с головокружительной быстротой. Миллионы лет назад эти острова заселили когорты чудных переселенцев. Но чтобы приспособится к этим жёстким и безжалостным условиям, новоприбывшим пришлось существенно измениться. Даже сегодня раскрыты далеко не все их удивительные способности. История этих существ, как мозаика складывается в единую повесть о том, как Галапагосы стали фаворитами по разнообразию сред обитания на нашей планете.3. Эволюция / Evolution (00:52:10)На каждом из 16-ти Галапагосских островов обитает уникальное сообщество живых организмов. Открытие всех этих существ привело к появлению учения, которое совершило переворот в нашем понимании возникновения жизни на Земле.-Доп. информация: Первый сезон сериала - три серии из четырёх. Четвёртая серия была Фильм о фильме (на БД 3Д не выходила).
О русской дороге: ТВ-версия и БД-версия отличаются не только продолжительностью, но и монтажом звука - в некоторых местах голос рассказчика наложен на совершенно другую музыку. Потому многие склейки при редактировании хорошо заметны.
Некоторых эпизодов в ТВ-версии не было, поэтому здесь они идут без перевода (от одной фразы до 5,5 минут).-Премьера (мир): 1 января 2013
. .
За исходник спасибо и BLUE_LIFE!
За исходник русской дороги спасибо Burn in The USSR!
-Качество: BDRip (by Ash61)
Контейнер: MKV
Формат 3D: Anamorph OverUnder / Вертикальная анаморфная стереопара
Порядок ракурсов: левый ракурс первый-Видео: AVC / 23,976 fps / 1920х1080p / 14.7 Mbps; 15.4 Mbps; 17.0 Mbps
Аудио:
#1 - Русский / AC3 / 48 KHz / 2 ch / 384 Kbps (VO - Ю. Онищенко) Edit by Ash61
#2 - Английский / AC3 / 48 KHz / 5.1 ch / 640 Kbps (Original - BD 3D)
Субтитры: Отсутствуют

MediaInfo первой серии (остальные отличаются только битрейтом видео)

General
Unique ID : 196529576435158181289783947528018971915 (0x93DA38391C0537A88A9DDAF77F21CD0B)
Complete name : E:\GalapagosWithDavidAttenborough(S01E01-03)(2013)3D-halfOU(Ash61)VO\GalapagosWithDavidAttenborough(S01E01)Origin(2013)3D-halfOU(Ash61)VO.mkv
Format : Matroska
Format version : Version 2
File size : 5.83 GiB
Duration : 52mn 10s
Overall bit rate : 16.0 Mbps
Movie name : Галапагосы с Дэвидом Аттенборо: Происхождение / Galapagos 3D (S01E01) Origin (2013)
Encoded date : UTC 2014-01-19 06:26:22
Writing application : mkvmerge v5.8.0 ('No Sleep / Pillow') built on Sep 2 2012 15:37:04
Writing library : libebml v1.2.3 + libmatroska v1.3.0
Video
ID : 1
Format : AVC
Format/Info : Advanced Video Codec
Format profile : High@L4.1
Format settings, CABAC : Yes
Format settings, ReFrames : 4 frames
Codec ID : V_MPEG4/ISO/AVC
Duration : 52mn 10s
Bit rate : 14.7 Mbps
Width : 1 920 pixels
Height : 1 080 pixels
Display aspect ratio : 16:9
Frame rate mode : Constant
Frame rate : 23.976 fps
Color space : YUV
Chroma subsampling : 4:2:0
Bit depth : 8 bits
Scan type : Progressive
Bits/(Pixel*Frame) : 0.295
Stream size : 5.34 GiB (92%)
Title : BDRip by Ash61
Writing library : x264 core 129 r2245 bc13772
Encoding settings : cabac=1 / ref=4 / deblock=1:-3:-3 / analyse=0x3:0x113 / me=umh / subme=10 / psy=1 / psy_rd=1.00:0.15 / mixed_ref=1 / me_range=32 / chroma_me=1 / trellis=2 / 8x8dct=1 / cqm=0 / deadzone=21,11 / fast_pskip=1 / chroma_qp_offset=-3 / threads=12 / lookahead_threads=2 / sliced_threads=0 / nr=0 / decimate=1 / interlaced=0 / bluray_compat=0 / constrained_intra=0 / bframes=10 / b_pyramid=2 / b_adapt=2 / b_bias=0 / direct=3 / weightb=1 / open_gop=0 / weightp=2 / keyint=250 / keyint_min=23 / scenecut=40 / intra_refresh=0 / rc_lookahead=60 / rc=crf / mbtree=1 / crf=17.0 / qcomp=0.70 / qpmin=0 / qpmax=69 / qpstep=4 / vbv_maxrate=40000 / vbv_bufsize=30000 / crf_max=0.0 / nal_hrd=none / frame-packing=4 / ip_ratio=1.40 / aq=1:0.70
Language : English
Default : Yes
Forced : No
Audio #1
ID : 2
Format : AC-3
Format/Info : Audio Coding 3
Mode extension : CM (complete main)
Format settings, Endianness : Big
Codec ID : A_AC3
Duration : 52mn 10s
Bit rate mode : Constant
Bit rate : 384 Kbps
Channel(s) : 2 channels
Channel positions : Front: L R
Sampling rate : 48.0 KHz
Bit depth : 16 bits
Compression mode : Lossy
Stream size : 143 MiB (2%)
Title : Одноголосый закадровый - Юрий Онищенко (перевод Logos71)
Language : Russian
Default : Yes
Forced : No
Audio #2
ID : 3
Format : AC-3
Format/Info : Audio Coding 3
Mode extension : CM (complete main)
Format settings, Endianness : Big
Codec ID : A_AC3
Duration : 52mn 10s
Bit rate mode : Constant
Bit rate : 640 Kbps
Channel(s) : 6 channels
Channel positions : Front: L C R, Side: L R, LFE
Sampling rate : 48.0 KHz
Bit depth : 16 bits
Compression mode : Lossy
Stream size : 239 MiB (4%)
Title : Original - BD 3D
Language : English
Default : No
Forced : No
Menu
00:00:00.000 : :1. Introduction
00:01:42.477 : :2. Isolation
00:05:41.341 : :3. Giant Tortoises
00:15:08.908 : :4. Hitchhikers
00:25:06.839 : :5. Currents
00:42:24.542 : :6. Penguins

Для оценки 3Д - Анимированные скрины


















19.01.2014. Релиз обновлён - добавлена русская дорога.
Желающие, скачайте заново торрент-файл.
Благодарности релизеру (21)

Торрент:

Статус:

Размер:

Зарегистрирован   [ 2014-01-19 12:59 ]

проверено

18.64 GB