Торренты   
 
 


Metallica: Сквозь невозможное в 3Д / Metallica Through the Never 3D (Нимрод Антал / Nimród Antal) [2013, Музыка, Приключения, BDrip, 1080p]Full OverUnder / Вертикальная стереопара

Рейтинг 3D:
80 голосов
6.7
Рейтинг фильма:
80 голосов
6.7
 
Вы должны быть авторизированы,
чтобы ставить оценки


Metallica: Сквозь невозможное / Metallica Through the Never
Год выпуска: 2013
Страна: США
Студия: PictureHouse, Blackened
Жанр: Музыка, Приключения
Продолжительность: 01:32:45
Перевод: Профессиональный многоголосый закадровый - ТНТ(монтаж Ash61)
Русские субтитры: нет
Режиссер на русском: Нимрод Антал
Режиссер на английском: Nimród Antal
В ролях: Дэйн ДеХаан, Джеймс Хетфилд, Ларс Ульрих, Кирк Хеммет, Роберт Трухильо, Кайл Томсон, Тоби Харгрейв, МакКензи Грэй, Питер Брайант, Хротгар Мэтьюз
Описание: Участник технической команды группы Metallica получает задание — привезти сумку, содержимое которой необходимо группе для выступления. Сопровождая таинственную сумку, он попадает в невероятные передряги. Картина представляет собой смесь игрового фильма и концерта.
Сэмпл: http://sendfile.su/1162980
Качество: BDrip
Контейнер: MKV
Формат 3D: OverUnder / Вертикальная стереопара
Порядок ракурсов: левый ракурс первый
Видео кодек: x264
Аудио кодек: AC3, DTS
Видео: AVC / High@L5.0 / 23,976 fps / 1920х1600 / 30,7 Мбит/сек
Аудио: Русский / AC3 / 48 KHz / 5.1 ch / 640 Кбит/сек(MVO - ТНТ) (монтаж Ash61)
Аудио 2: Английский / DTS / 48 KHz / 5.1 ch / 1510 Кбит/сек
Релиз группы: ВНИМАНИЕ ! На встроенных ТВ-плеерах работать не будет!!!
Железные плееры на которых воспроизводятся полные стереопары:Popcorn C-200 , Dune HD Smart D1 , Dune HD DUO , Dune HD Smart H1 , Dune HD Smart B1 , Dune HD Max , Dune HD TV-303D , Dune HD Base 3D , Dune HD TV-301

10.10.2015. Релиз обновлён добавлена русская дорожка ТНТ-5.1.
Желающие, скачайте за4ново торрент-файл.

MediaInfo

Общее
Уникальный идентификатор : 211441684658972071748634258198386234134 (0x9F122FEC2F3CA201A843AC5F0540D316)
Полное имя : E:\закачки\Metallica Through the Never.Rip by SeRoGa00.mkv
Формат : Matroska
Версия формата : Version 2
Размер файла : 21,7 Гбайт
Продолжительность : 1 ч. 32 м.
Режим общего битрейта : Переменный
Общий поток : 33,6 Мбит/сек
Дата кодирования : UTC 2015-10-10 09:11:01
Программа кодирования : mkvmerge v3.4.0 ('Rapunzel') сборка от May 15 2010 09:38:20
Библиотека кодирования : libebml v0.8.0 + libmatroska v0.9.0
Видео
Идентификатор : 1
Формат : AVC
Формат/Информация : Advanced Video Codec
Профиль формата : High@L5.0
Параметр CABAC формата : Да
Параметр ReFrames формата : 4 кадра
Идентификатор кодека : V_MPEG4/ISO/AVC
Продолжительность : 1 ч. 32 м.
Битрейт : 30,7 Мбит/сек
Ширина : 1920 пикселей
Высота : 1600 пикселей
Соотношение сторон : 1,200
Частота кадров : 23,976 кадра/сек
Цветовое пространство : YUV
Субдискретизация насыщенности : 4:2:0
Битовая глубина : 8 бит
Тип развёртки : Прогрессивная
Бит/(Пиксели*Кадры) : 0.417
Размер потока : 19,9 Гбайт (91%)
Заголовок : Rip by SeRoGa00
Библиотека кодирования : x264 core 138 r2356 a1d3d17
Настройки программы : cabac=1 / ref=4 / deblock=1:-3:-3 / analyse=0x3:0x113 / me=umh / subme=9 / psy=1 / psy_rd=1.00:0.15 / mixed_ref=1 / me_range=24 / chroma_me=1 / trellis=2 / 8x8dct=1 / cqm=0 / deadzone=21,11 / fast_pskip=1 / chroma_qp_offset=-3 / threads=9 / lookahead_threads=1 / sliced_threads=0 / nr=0 / decimate=1 / interlaced=0 / bluray_compat=0 / constrained_intra=0 / bframes=8 / b_pyramid=2 / b_adapt=2 / b_bias=0 / direct=3 / weightb=1 / open_gop=0 / weightp=2 / keyint=250 / keyint_min=23 / scenecut=40 / intra_refresh=0 / rc_lookahead=60 / rc=crf / mbtree=1 / crf=18.0 / qcomp=0.60 / qpmin=10 / qpmax=69 / qpstep=4 / vbv_maxrate=40000 / vbv_bufsize=40000 / crf_max=0.0 / nal_hrd=none / ip_ratio=1.40 / aq=1:1.00
Язык : English
Default : Нет
Forced : Нет
Аудио #1
Идентификатор : 2
Формат : AC-3
Формат/Информация : Audio Coding 3
Расширение режима : CM (complete main)
Параметр Endianness формата : Big
Идентификатор кодека : A_AC3
Продолжительность : 1 ч. 32 м.
Вид битрейта : Постоянный
Битрейт : 640 Кбит/сек
Каналы : 6 каналов
Расположение каналов : Front: L C R, Side: L R, LFE
Частота : 48,0 КГц
Битовая глубина : 16 бит
Метод сжатия : С потерями
Размер потока : 425 Мбайт (2%)
Язык : Russian
Default : Нет
Forced : Нет
Аудио #2
Идентификатор : 3
Формат : DTS
Формат/Информация : Digital Theater Systems
Профиль формата : MA / Core
Идентификатор кодека : A_DTS
Продолжительность : 1 ч. 32 м.
Вид битрейта : Переменный
Битрейт : 1561 Кбит/сек / 1510 Кбит/сек
Каналы : 6 каналов
Расположение каналов : Front: L C R, Side: L R, LFE
Частота : 48,0 КГц
Битовая глубина : 24 бит
Метод сжатия : Без потерь / Lossy
Язык : English
Default : Да
Forced : Нет

Скриншоты


Трек-лист

1. Introduction
2. Ecstasy of Gold
3. Creeping Death
4. For Whom the Bell Tolls
5. Fuel
6. Ride the Lightning
7. One
8. The Memory Remains
9. Wherever I May Roam
10. Cyanide
11. ...And Justice for All
12. Master of Puppets
13. Battery
14. Nothing Else Matters
15. Enter Sandman
16. Hit the Lights
17. Orion
Остальные раздачи этого фильма (5)
Благодарности релизеру (4)

Торрент:

Статус:

Размер:

Зарегистрирован   [ 2015-10-10 13:58 ]

* не проверено

21.74 GB

 
 Мнение о фильме (23)

1, 2  След.






Металлику уважаю, но не фанател никогда. Фильм посмотрел с удовольствием. Шоу вселенского уровня! Хэтфилд в фантастической физической и голосовой форме, даже не ожидал от старичков такого отжига, ни скуки, ни усталости, настоящие матёрые поджарые волчищи, чистый драйв!!!
 

Поддерживаю целиком и полностью-однозначно в коллекцию!
 

Я думаю стоит расценивать "фильм" не как фильм, а как постановочный концерт.
А как концерт - все на высшем уровне!
 

Сам фильм-концерт класс, но 3д, как эффект присутствия, почти никакое, что-то Ларс с 3д прогадал. У Скорпов эффект присутствия в десятки раз лучше, ИМХО.
 

согласен с предыдущим оратором!!!;)
 

Все отлично,давно ждал
 

Хороший концерт, 3D нормально
 

Все отлично, 3D на уровне, в коллекцию однозначно
 

Старички жгут.Учитесь молодежь:).В коллекцию.
 

Хороший концерт мне понравился 3D норма !!! однозначно в колекцыю !!!
 

отличный концерт группы всем поклонникам советую
 

Спасибо! Понравилось!
 

Спасибо! Один раз посмотреть можно. Шоу снято хорошо. А насчет музыки, так себе. Но каждому свое.
 

Отличное шоу
 

красиво снят, хорошие спец эфекты, рекомендую.
 

Как фанат творчества, творений этой команды с удовольствием удаляю сей 3D-кино"шедевр". Автору раздачи, естественно, низкий поклон. Качество супер!
 

фильм суперский!!!!!!!! металлика рулит!!!!! 11 июня еду смотреть в варшаву металлику живьём) 3 дэ отдыхает!!)
 

Раздача хороша, но, к сожалению, на WDTV Live Hub вылетает каждые 40 секунд. Придется подыскать другую,, а хотелось именно SbS (некоторые телевизоры неправильно накладывают OU, если те содержат черные полосы).
 

Вот так бы Dimmu Borgir закатали!!!!!
 

не ну где с переводом? на мови слушать не хочу! патриотизм не позволяет!!!
 

Страница 1 из 2

1, 2  След.