Торренты   
 
 


Инферно / Out of Inferno (Оксид Пан, Дэнни Пан) [2013 г., Anamorph OverUnder]

Рейтинг 3D:
21 голосов
6.8
Рейтинг фильма:
21 голосов
4.3
 
Вы должны быть авторизированы,
чтобы ставить оценки


Инферно / Out of Inferno Год выпуска: 2013
Страна: Китай, Гонконг
Жанр: Фильм катастрофа, Драма
Продолжительность: 01:47:20
Перевод: Любительский (одноголосый) Den904 (перевод - chup)
Режиссер: Оксид Пан, Дэнни Пан
В ролях: Чинг Ван Лау, Луис Ку, Анджелика Ли, Чэнь Сы Чэн, Натали Тонг, Сиу-Фай Чунг, QiaoQiao Jin, Crystal Lee, Marc Ma, ShiuHung Hui
Описание: Команде гонконгских пожарных придется столкнуться не только с небывалой силой пожара, но и с непростой задачей по спасению оказавшихся замкнутыми в огненном котле людьми.
Качество: BDrip by StarStranger
Контейнер: MKV
Формат 3D: Anamorph OverUnder / Вертикальная анаморфная стереопара
Видео кодек: Н.264
Аудио кодек: AC-3
Видео: AVC, AVC, High@L4.1, 1920х1080, 23,976 кадра/сек, 9594 Кбит/сек
Аудио:
Русский / AC3 / 48 KHz / 5.1 ch / 640 Kbps (VO - den904) Edit & Mix by Ash61

Скриншоты

Media Info

Общее
Уникальный идентификатор : 220875560511972954485951759763396334095 (0xA62B15E9B4EF1E96918A675E7573920F)
Полное имя : H:\Source\OutOfInferno.3D.2013.BD3DRip.Half.OU.x264.AC3.3D-RuGroup.mkv
Формат : Matroska
Версия формата : Version 4 / Version 2
Размер файла : 7,83 Гбайт
Продолжительность : 1 ч. 47 м.
Общий поток : 10,4 Мбит/сек
Название фильма : Out of Inferno (2013) 3D release 3D-RuGroup
Дата кодирования : UTC 2014-01-21 14:48:37
Программа кодирования : mkvmerge v6.3.0 ('You can't stop me!') built on Jul 19 2013 16:27:38
Библиотека кодирования : libebml v1.3.0 + libmatroska v1.4.1
Видео
Идентификатор : 1
Формат : AVC
Формат/Информация : Advanced Video Codec
Профиль формата : High@L4.1
Параметр CABAC формата : Да
Параметр ReFrames формата : 4 кадра
Идентификатор кодека : V_MPEG4/ISO/AVC
Продолжительность : 1 ч. 47 м.
Битрейт : 9594 Кбит/сек
Ширина : 1920 пикселей
Высота : 1080 пикселей
Соотношение сторон : 16:9
Режим частоты кадров : Постоянный
Частота кадров : 23,976 кадра/сек
Цветовое пространство : YUV
Субдискретизация насыщенности : 4:2:0
Битовая глубина : 8 бит
Тип развёртки : Прогрессивная
Бит/(Пиксели*Кадры) : 0.193
Размер потока : 7,19 Гбайт (92%)
Заголовок : rip by itsamna aka StarStranger (release 3D-RuGroup)
Библиотека кодирования : x264 core 130 r2273 b3065e6
Настройки программы : cabac=1 / ref=4 / deblock=1:-3:-3 / analyse=0x3:0x133 / me=umh / subme=10 / psy=1 / psy_rd=1.00:0.15 / mixed_ref=1 / me_range=32 / chroma_me=1 / trellis=2 / 8x8dct=1 / cqm=0 / deadzone=21,11 / fast_pskip=0 / chroma_qp_offset=-3 / threads=12 / lookahead_threads=2 / sliced_threads=0 / nr=0 / decimate=1 / interlaced=0 / bluray_compat=0 / constrained_intra=0 / bframes=8 / b_pyramid=2 / b_adapt=2 / b_bias=0 / direct=3 / weightb=1 / open_gop=0 / weightp=2 / keyint=250 / keyint_min=23 / scenecut=40 / intra_refresh=0 / rc_lookahead=60 / rc=crf / mbtree=1 / crf=18.0 / qcomp=0.60 / qpmin=0 / qpmax=69 / qpstep=4 / vbv_maxrate=50000 / vbv_bufsize=62500 / crf_max=0.0 / nal_hrd=none / ip_ratio=1.40 / aq=1:0.90
Default : Да
Forced : Нет
Аудио
Идентификатор : 2
Формат : AC-3
Формат/Информация : Audio Coding 3
Расширение режима : CM (complete main)
Параметр Endianness формата : Big
Идентификатор кодека : A_AC3
Продолжительность : 1 ч. 47 м.
Вид битрейта : Постоянный
Битрейт : 640 Кбит/сек
Каналы : 6 каналов
Расположение каналов : Front: L C R, Side: L R, LFE
Частота : 48,0 КГц
Битовая глубина : 16 бит
Метод сжатия : С потерями
Размер потока : 491 Мбайт (6%)
Заголовок : Одноголосый закадровый - Den904 (edit & mix by Ash61)
Язык : Russian
Default : Да
Forced : Нет
Текст
Идентификатор : 3
Формат : UTF-8
Идентификатор кодека : S_TEXT/UTF8
Идентификатор кодека/Информация : UTF-8 Plain Text
Язык : English
Default : Нет
Forced : Нет
Меню
00:00:00.000 : :01
00:06:25.802 : :02
00:14:34.082 : :03
00:22:52.663 : :04
00:32:32.242 : :05
00:43:27.605 : :06
00:52:51.001 : :07
01:02:26.159 : :08
01:11:24.113 : :09
01:21:37.726 : :10
01:29:25.193 : :11
01:38:43.751 : :12
--Релиз группы:

Проверено на встроенном плейере ТВ LG 42LW4500
--
Благодарности релизеру (20)

Торрент:

Статус:

Размер:

Зарегистрирован   [ 2014-01-21 20:37 ]

проверено

7.83 GB

 
 Мнение о фильме (11)





фильм- китайский отстой!!
 

спасибо фильм хороший.ждём новых.
 

Спасибо фильм нормальный.
 

3D так себе,вылетов нету,фильм можно посмотреть оценка 6 из 10.Сделайте в 3D фильм Честь Дракона 2,там хоть вылетов много.
 

Сделайте в 3D фильм Честь Дракона 2,там хоть вылетов много.
сделать или выложить?
а то я уж больно поперхнулся
 

Дочь сделала вывод из почти 2-х часового фильма: "Нельзя бросать окурки", ибо из искры возгорится пламя. Что-то нереальное, из вентиляции летят искры по этажам и не гаснут, а еще и все сразу вспыхивает, причем, был длительный дождь и все пропиталось влагой. Китайцы они вообще люди интересные. 3D так себе, что есть, что нет, слегка искры повылетали и все. А за раздачу спасибо.
 

Спасибо.
 

спасибо яркий фильм
 

Спасибо за труды.
 

Фильм яркий, пожар прикольно прорисован, одноразовый фильм. вылетов нет, только искры по вентиляции летят прикольно
 

спасибо за труды и за раздачу.фильм просто шлак,просмотрел всего 30 минут и выключил,посижу пару дней на раздаче и удалю!