Торренты   
 
 

 

Венский Зоопарк Шёнбрунн / Zoo Vienna: Der Tiergarten Schönbrunn [2013, BDRip, half1080p, Anamorph OverUnder] Eng, Ger

Рейтинг 3D:
3 голосов
8.7
Рейтинг фильма:
3 голосов
7.7
 
Вы должны быть авторизированы,
чтобы ставить оценки


Венский Зоопарк Шёнбрунн
Zoo Vienna: Der Tiergarten Schönbrunn

Год выпуска: 2013
Страна: Германия (Busch Media Group)
Жанр: Документальный, Видовой
Продолжительность: 00:51:10
Перевод: Отсутствует
Режиссеры: Simon Busch, Alexander Sass
Описание: Добро пожаловать в дворец, внесенный в список Всемирного наследия и являющийся культурной изюминкой Вены. Шагните в старейший зоопарк мира, основанный в 1752 году. Насладитесь самым красивым зоопарком Европы, впервые снятым в формате 3D. Отправьтесь на встречу с гигантской пандой, слонами, большими кошками и носорогами. Наслаждайтесь дикой природой уникального и исторического места в Real 3D. Загляните за кулисы к хранителям зоопарка и узнайте об их опыте работы с животными.
Доп. инфо: 3Д глубокое.-
За исходный BD 3D спасибо и PeterGriffin!
-Качество: BDRip (by Ash61)
Контейнер: MKV
Формат 3D: Half OverUnder / Вертикальная анаморфная стереопара
Порядок ракурсов: левый ракурс первый-Видео: AVC / 23,976 fps / 1920х1080p / 18.3 Mbps
Аудио:
#1 - Английский / AC3 / 48 KHz / 2 ch / 448 Kbps
#2 - Немецкий / AC3 / 48 KHz / 2 ch / 448 Kbps (Original - BD 3D)
Субтитры: Отсутствуют

MediaInfo

General
Unique ID : 202329655945482500859718809255810636536 (0x98374638ACE38D89A443A19078E71AF8)
Complete name : E:\ZooVienna(2013)3D-halfOU(Ash61)Eng,Ger.mkv
Format : Matroska
Format version : Version 2
File size : 6.99 GiB
Duration : 51mn 10s
Overall bit rate : 19.6 Mbps
Movie name : Венский зоопарк / Zoo Vienna: Der Tiergarten Schönbrunn (2013) 3D
Encoded date : UTC 2014-01-23 14:34:48
Writing application : mkvmerge v5.8.0 ('No Sleep / Pillow') built on Sep 2 2012 15:37:04
Writing library : libebml v1.2.3 + libmatroska v1.3.0
Video
ID : 1
Format : AVC
Format/Info : Advanced Video Codec
Format profile : High@L4.1
Format settings, CABAC : Yes
Format settings, ReFrames : 4 frames
Codec ID : V_MPEG4/ISO/AVC
Duration : 51mn 10s
Bit rate : 18.3 Mbps
Width : 1 920 pixels
Height : 1 080 pixels
Display aspect ratio : 16:9
Frame rate mode : Constant
Frame rate : 23.976 fps
Color space : YUV
Chroma subsampling : 4:2:0
Bit depth : 8 bits
Scan type : Progressive
Bits/(Pixel*Frame) : 0.368
Stream size : 6.53 GiB (93%)
Title : BDRip by Ash61
Writing library : x264 core 129 r2245 bc13772
Encoding settings : cabac=1 / ref=4 / deblock=1:-3:-3 / analyse=0x3:0x113 / me=umh / subme=10 / psy=1 / psy_rd=1.00:0.15 / mixed_ref=1 / me_range=32 / chroma_me=1 / trellis=2 / 8x8dct=1 / cqm=0 / deadzone=21,11 / fast_pskip=1 / chroma_qp_offset=-3 / threads=12 / lookahead_threads=2 / sliced_threads=0 / nr=0 / decimate=1 / interlaced=0 / bluray_compat=0 / constrained_intra=0 / bframes=10 / b_pyramid=2 / b_adapt=2 / b_bias=0 / direct=3 / weightb=1 / open_gop=0 / weightp=2 / keyint=250 / keyint_min=23 / scenecut=40 / intra_refresh=0 / rc_lookahead=60 / rc=crf / mbtree=1 / crf=17.0 / qcomp=0.70 / qpmin=0 / qpmax=69 / qpstep=4 / vbv_maxrate=40000 / vbv_bufsize=30000 / crf_max=0.0 / nal_hrd=none / frame-packing=4 / ip_ratio=1.40 / aq=1:0.70
Language : German
Default : Yes
Forced : No
Audio #1
ID : 2
Format : AC-3
Format/Info : Audio Coding 3
Mode extension : CM (complete main)
Format settings, Endianness : Big
Codec ID : A_AC3
Duration : 51mn 10s
Bit rate mode : Constant
Bit rate : 448 Kbps
Channel(s) : 2 channels
Channel positions : Front: L R
Sampling rate : 48.0 KHz
Bit depth : 16 bits
Compression mode : Lossy
Stream size : 164 MiB (2%)
Title : BD 3D
Language : English
Default : Yes
Forced : No
Audio #2
ID : 3
Format : AC-3
Format/Info : Audio Coding 3
Mode extension : CM (complete main)
Format settings, Endianness : Big
Codec ID : A_AC3
Duration : 51mn 10s
Bit rate mode : Constant
Bit rate : 448 Kbps
Channel(s) : 2 channels
Channel positions : Front: L R
Sampling rate : 48.0 KHz
Bit depth : 16 bits
Compression mode : Lossy
Stream size : 164 MiB (2%)
Title : Original - BD 3D
Language : German
Default : No
Forced : No
Menu
00:00:00.000 : :1
00:05:17.984 : :2
00:07:39.584 : :3
00:08:56.911 : :4
00:11:01.953 : :5
00:11:53.087 : :6
00:16:09.969 : :7
00:21:08.392 : :8
00:24:43.607 : :9
00:27:10.254 : :10
00:28:26.747 : :11
00:31:02.110 : :12
00:36:52.127 : :13
00:37:31.875 : :14
00:38:54.707 : :15
00:40:42.690 : :16
00:45:25.932 : :17
00:48:23.943 : :18
00:49:52.114 : :19

Для оценки 3Д - Анимированные скрины















Благодарности релизеру (18)

Торрент:

Статус:

Размер:

Зарегистрирован   [ 2014-01-23 20:59 ]

проверено

6.99 GB

 
 Мнение о фильме (2)





фильм видовой с хорошим 3D, жаль что без перевода.
 

нет перевода а 3д в норме