Торренты   
 
 

 

Дикая Африка 3D / Wild Africa 3D [2013, BDRip, half1080p, Anamorph OverUnder]

Рейтинг 3D:
6 голосов
7.7
Рейтинг фильма:
6 голосов
7.1
 
Вы должны быть авторизированы,
чтобы ставить оценки


Дикая Африка 3D
Wild Africa 3D

Год выпуска: 2013
Страна: Германия (3D-Media International)
Жанр: Документальный, Видовой
Продолжительность: 00:52:19
Перевод: Не требуется
Режиссер на английском: Peter Lord
Описание: Очередная немецкая документалка-экскурсия по африканским саваннам.- . -Качество: BDRip (by Ash61)
Контейнер: MKV
Формат 3D: Half OverUnder / Вертикальная анаморфная стереопара
Порядок ракурсов: левый ракурс первый-Видео: AVC / 23,976 fps / 1920х1080p / 20.5 Mbps
Аудио:
#1 - Инструментал / AC3 / 48 KHz / 5.1 ch / 640 Kbps (BD 3D)
#2 - Немецкий / AC3 / 48 KHz / 5.1 ch / 640 Kbps (Original - BD 3D)
Субтитры: Отсутствуют

MediaInfo

General
Unique ID : 185282302135096222498559623186799355401 (0x8B6412C956F00A6E94E1A88BB0876609)
Complete name : E:\WildAfrica3D(2013)3D-halfOU(Ash61)Instr,Ger.mkv
Format : Matroska
Format version : Version 2
File size : 8.13 GiB
Duration : 52mn 19s
Overall bit rate : 22.2 Mbps
Movie name : Дикая Африка 3Д / Wild Africa 3D (2013)
Encoded date : UTC 2014-01-24 14:51:49
Writing application : mkvmerge v5.8.0 ('No Sleep / Pillow') built on Sep 2 2012 15:37:04
Writing library : libebml v1.2.3 + libmatroska v1.3.0
Video
ID : 1
Format : AVC
Format/Info : Advanced Video Codec
Format profile : High@L4.1
Format settings, CABAC : Yes
Format settings, ReFrames : 4 frames
Codec ID : V_MPEG4/ISO/AVC
Duration : 52mn 19s
Bit rate : 20.5 Mbps
Width : 1 920 pixels
Height : 1 080 pixels
Display aspect ratio : 16:9
Frame rate mode : Constant
Frame rate : 23.976 fps
Color space : YUV
Chroma subsampling : 4:2:0
Bit depth : 8 bits
Scan type : Progressive
Bits/(Pixel*Frame) : 0.413
Stream size : 7.50 GiB (92%)
Title : BDRip by Ash61
Writing library : x264 core 129 r2245 bc13772
Encoding settings : cabac=1 / ref=4 / deblock=1:-3:-3 / analyse=0x3:0x113 / me=umh / subme=10 / psy=1 / psy_rd=1.00:0.15 / mixed_ref=1 / me_range=32 / chroma_me=1 / trellis=2 / 8x8dct=1 / cqm=0 / deadzone=21,11 / fast_pskip=1 / chroma_qp_offset=-3 / threads=12 / lookahead_threads=2 / sliced_threads=0 / nr=0 / decimate=1 / interlaced=0 / bluray_compat=0 / constrained_intra=0 / bframes=10 / b_pyramid=2 / b_adapt=2 / b_bias=0 / direct=3 / weightb=1 / open_gop=0 / weightp=2 / keyint=250 / keyint_min=23 / scenecut=40 / intra_refresh=0 / rc_lookahead=60 / rc=crf / mbtree=1 / crf=17.0 / qcomp=0.70 / qpmin=0 / qpmax=69 / qpstep=4 / vbv_maxrate=40000 / vbv_bufsize=30000 / crf_max=0.0 / nal_hrd=none / frame-packing=4 / ip_ratio=1.40 / aq=1:0.70
Language : German
Default : Yes
Forced : No
Audio #1
ID : 2
Format : AC-3
Format/Info : Audio Coding 3
Mode extension : CM (complete main)
Format settings, Endianness : Big
Codec ID : A_AC3
Duration : 52mn 19s
Bit rate mode : Constant
Bit rate : 640 Kbps
Channel(s) : 6 channels
Channel positions : Front: L C R, Side: L R, LFE
Sampling rate : 48.0 KHz
Bit depth : 16 bits
Compression mode : Lossy
Stream size : 239 MiB (3%)
Title : Instrumental - BD 3D
Default : Yes
Forced : No
Audio #2
ID : 3
Format : AC-3
Format/Info : Audio Coding 3
Mode extension : CM (complete main)
Format settings, Endianness : Big
Codec ID : A_AC3
Duration : 52mn 19s
Bit rate mode : Constant
Bit rate : 640 Kbps
Channel(s) : 6 channels
Channel positions : Front: L C R, Side: L R, LFE
Sampling rate : 48.0 KHz
Bit depth : 16 bits
Compression mode : Lossy
Stream size : 239 MiB (3%)
Title : Original - BD 3D
Language : German
Default : No
Forced : No
Menu
00:00:00.000 : :1
00:16:46.547 : :2
00:31:52.953 : :3
00:41:34.826 : :4

Для оценки 3Д - Анимированные скрины












Благодарности релизеру (10)

Торрент:

Статус:

Размер:

Зарегистрирован   [ 2014-01-24 21:45 ]

проверено

8.13 GB