Торренты   
 
 

 

4 новых трейлера [2014 г., DCPrip, Anamorph OverUnder]

Рейтинг 3D:
9 голосов
7.7
Рейтинг фильма:
10 голосов
7.2
 
Вы должны быть авторизированы,
чтобы ставить оценки


4 новых трейлера
Год выпуска: 2014
Страна: США...
Продолжительность: общая 00:08:27--Описание:
1: Новый Человек-Паук. Высокое напряжение в 3D - The Amazing Spider-Man 2 in 3D
2: Реальная белка в 3D - The Nut Job in 3D
3: Феи: Загадка пиратского острова в 3D - Tinker Bell: the Pirate Fairy in 3D
3: Рио 2 в 3D, трейлер №2 - Rio 2 in 3D, trailer №2
--Формат 3D: Anamorph OverUnder (левый ракурс верхний)
Качество: DCPrip
Видео: AVC / 1920х1080 / 24 fps /
Аудио: AC3 / 6 ch / 448 Kbps / 48 KHz / Русский

Скриншоты




Media Info Одного из файлов

Код:
Общее
Уникальный идентификатор                 : 227460493549835280198194818638576902026 (0xAB1F4C2D7FF6BF58A76CBCDAE5585F8A)
Полное имя                               : L:\_3D\3D-Trailers\_2014\3D\3D\Trailer_TheAmazingSpiderMan2(3D)HalfOU-abq.mkv
Формат                                   : Matroska
Версия формата                           : Version 2
Размер файла                             : 405 Мбайт
Продолжительность                        : 2 м. 5 с.
Общий поток                              : 27,0 Мбит/сек
Дата кодирования                         : UTC 2014-01-18 22:09:48
Программа кодирования                    : mkvmerge v4.0.0 ('The Stars were mine') сборка от Jun  6 2010 16:18:42
Библиотека кодирования                   : libebml v1.0.0 + libmatroska v1.0.0
Видео
Идентификатор                            : 1
Формат                                   : AVC
Формат/Информация                        : Advanced Video Codec
Профиль формата                          : High@L4.1
Параметр CABAC формата                   : Да
Параметр ReFrames формата                : 4 кадра
Идентификатор кодека                     : V_MPEG4/ISO/AVC
Продолжительность                        : 2 м. 5 с.
Битрейт                                  : 26,0 Мбит/сек
Ширина                                   : 1920 пикселей
Высота                                   : 1080 пикселей
Соотношение сторон                       : 16:9
Режим частоты кадров                     : Постоянный
Частота кадров                           : 24,000 кадра/сек
Цветовое пространство                    : YUV
Субдискретизация насыщенности            : 4:2:0
Битовая глубина                          : 8 бит
Тип развёртки                            : Прогрессивная
Бит/(Пиксели*Кадры)                      : 0.522
Размер потока                            : 390 Мбайт (96%)
Библиотека кодирования                   : x264 core 116 r2074 2641b9e
Настройки программы                      : cabac=1 / ref=4 / deblock=1:-3:-3 / analyse=0x3:0x113 / me=umh / subme=9 / psy=1 / psy_rd=1.00:0.15 / mixed_ref=1 / me_range=32 / chroma_me=1 / trellis=2 / 8x8dct=1 / cqm=0 / deadzone=21,11 / fast_pskip=1 / chroma_qp_offset=-3 / threads=6 / sliced_threads=0 / nr=0 / decimate=1 / interlaced=0 / bluray_compat=0 / constrained_intra=0 / bframes=6 / b_pyramid=2 / b_adapt=2 / b_bias=0 / direct=3 / weightb=1 / open_gop=0 / weightp=2 / keyint=240 / keyint_min=24 / scenecut=40 / intra_refresh=0 / rc_lookahead=60 / rc=crf / mbtree=1 / crf=18.0 / qcomp=0.85 / qpmin=0 / qpmax=69 / qpstep=4 / vbv_maxrate=40000 / vbv_bufsize=40000 / crf_max=0.0 / nal_hrd=none / frame-packing=4 / ip_ratio=1.40 / aq=1:0.70
Язык                                     : English
Default                                  : Нет
Forced                                   : Нет
Аудио
Идентификатор                            : 2
Формат                                   : AC-3
Формат/Информация                        : Audio Coding 3
Расширение режима                        : CM (complete main)
Параметр Endianness формата              : Big
Идентификатор кодека                     : A_AC3
Продолжительность                        : 2 м. 5 с.
Вид битрейта                             : Постоянный
Битрейт                                  : 448 Кбит/сек
Каналы                                   : 6 каналов
Расположение каналов                     : Front: L C R, Side: L R, LFE
Частота                                  : 48,0 КГц
Битовая глубина                          : 16 бит
Метод сжатия                             : С потерями
Размер потока                            : 6,72 Мбайт (2%)
Язык                                     : Russian
Default                                  : Да
Forced                                   : Нет
Благодарности релизеру (23)

Торрент:

Статус:

Размер:

Зарегистрирован   [ 2014-01-25 21:11 ]

проверено

1.02 GB

 
 Мнение о фильме (5)





Челопук 2 - Класссс !
 

samfednik, спасибо за новые трейлеры! Рио 2 с хорошим 3D будет.
 

Спасибо, понравились!!!
 

samfednik спасибо за трейлеры! человек паук 2 трейлер обалденный,причем новый такой еще не где не видел. и с белкой прикольно)
 

Трейлеры хорошие,фильмы-посмотрим!