Торренты   
 
 


Вий в 3Д / Viy 3D [2014 г., Anamorph OverUnder]

(C) Закрыто правообладателем-Вий в 3Д / Viy 3D
Год выпуска: 2014
Страна: Германия, Великобритания, Чехия, Украина, Россия
Жанр: фэнтези, триллер
Продолжительность: 00:01:40-Описание: …Начало XVIII века. Картограф Джонатан Грин совершает путешествие из Европы на Восток. Следуя через Трансильванию, он понимает, что заблудился. Изрядно поплутав в тумане, он оказывается в небольшом казацком поселении. Народ живет здесь в затворничестве, оградив себя от любых контактов с остальным миром. Что скрывают жители хутора? Чего боятся и почему прячутся? Ученый решает разгадать тайну, связанную с именем необыкновенного мифического создания — Вия. Древние славянские предания оживают…-
Формат 3D: Anamorph OverUnder
Перевод: Профессиональный (полное дублирование)
Видео: MPEG4 Video (H264),1920х1080,24fps,48.7 Мбит/сек
Аудио: Rus, AC3 48000Hz 6ch

Media Info

General
Unique ID : 214201927688273988099767893341534478862 (0xA125CA693859D114B93B8C9DD5B8E20E)
Complete name : F:\Трейлеры\Vii3D.mkv
Format : Matroska
Format version : Version 4 / Version 2
File size : 582 MiB
Duration : 1mn 40s
Overall bit rate mode : Variable
Overall bit rate : 48.7 Mbps
Encoded date : UTC 2013-12-27 19:02:13
Writing application : mkvmerge v6.6.0 ('The Edge Of The In Between') built on Dec 1 2013 17:55:00
Writing library : libebml v1.3.0 + libmatroska v1.4.1
Video
ID : 2
Format : AVC
Format/Info : Advanced Video Codec
Format profile : High@L5.0
Format settings, CABAC : Yes
Format settings, ReFrames : 4 frames
Format settings, GOP : M=3, N=15
Codec ID : V_MPEG4/ISO/AVC
Duration : 1mn 40s
Bit rate mode : Variable
Bit rate : 47.2 Mbps
Maximum bit rate : 200 Mbps
Width : 1 920 pixels
Height : 1 080 pixels
Display aspect ratio : 16:9
Frame rate mode : Constant
Frame rate : 24.000 fps
Standard : NTSC
Color space : YUV
Chroma subsampling : 4:2:0
Bit depth : 8 bits
Scan type : Progressive
Bits/(Pixel*Frame) : 0.949
Stream size : 565 MiB (97%)
Default : Yes
Forced : No
Color primaries : BT.709
Transfer characteristics : BT.709
Matrix coefficients : BT.709
Audio
ID : 1
Format : AC-3
Format/Info : Audio Coding 3
Mode extension : CM (complete main)
Format settings, Endianness : Big
Codec ID : A_AC3
Duration : 1mn 40s
Bit rate mode : Constant
Bit rate : 448 Kbps
Channel count : 6 channels
Channel positions : Front: L C R, Side: L R, LFE
Sampling rate : 48.0 KHz
Bit depth : 16 bits
Compression mode : Lossy
Stream size : 5.36 MiB (1%)
Language : Russian
Default : Yes
Forced : No
vii_v_3d_-_viy_3d_2014_ (1).torrent
Торрент: Не зарегистрирован

Скачать

12 KB

Добавлен: 2014-03-10 21:15
Скачано: 5926 раз  [ Список скачавших ]
   
 Мнение о фильме (28)

1, 2  След.






Трейлер(
 

что такое?? фильм тока 30 января.) ксататит этот офф. трейлер всех российских кинотеатров. тока в нем зависает топор)
 

У samfednik в паках "10 новых трейлеров" http://torrents3d.ru/article/4551/ и "3 новых ...." http://torrents3d.ru/article/4656/ есть два разных трейлера этого фильма. Здесь чем то отличается?
Ещё одна мелочь:
Format profile : High@L5.0
На старых моделях LG (возможно и других ТВ и годов), на встроенном плеере, не пойдет такой профиль, надо не выше 4.х.
 

читай внимательней.
 

на старых теликах смотреть трейлер 50 мбит/сек? какой смысл? это для новых телевизоров диагональю более 42" c LED и IPS. вот только тут вы сможите увидеть настоящее качество этого файла.
 

это уже традиция что фильм будет го..но !!!!
 

Так что делать-то...
 

Не хочется верить что это будут самые лучшие места в фильме. Поживем увидим.
 

хосподи увидим уже послезавтра)
 

ждём ждём ждём )))
 

Zagruzin, в этом трейлере есть пара-тройка сцен, которых не было в двух предыдущих трейлерах, несколько секунд. Ну и да, топор, и еще несколько моментов с вылетами.
Странно, но файл пошел на телевизоре, хотя вначале на экране и выскочила надпись: "этот файл невозможно воспроизвести обычным образом". Ролик пошел после трех незначительных подтормаживаний на первых секундах просмотра. Телевизор не самый новый, LG 47LW650S, смотрю встроенным плеером. Картинка очень хорошая.
 

файл завис, смотреть невозможно.
 
Алексей Вахляев Профиль 29-Янв-2014 08:31

Топор нефигово из экрана вылетает )) За трейлер спасибо.
 

Топор хорош, качество тоже, на ЛМ620С с последней прошей с флешки полет идеален
 

Топор хорош но в кинотеатре он зрелещней вылетел! у всех над головами) хотя дома тоже прикольно я его даже не паузу ставил расматривал)
 

супер
 

Кто уже посмотрел фильм в кинотеатре, отпишитесь о впечатлениях.
 

Сдесь остовляют коментарии тока о трейлере. Что же касается 3D самого фильма то - летают чертики 1 раз и топор 1 раз - всё. Большая часть фильма свободно смотрится без очков. идти ради 3D в кинр точно не стоит. а про сам фильм можно прочитать на любых других сайтах.
 

нормально!
 

Надо посмотреть-трейлер прикольный
 

Страница 1 из 2

1, 2  След.